Всегда рабочее зеркало без VPN и Proxy просто перед .vidak.icu напиши любое слово или цифру, Пример http://xuuu.vidak.icu

Лицензия

MVO

1 сезон

1

1 сезон

iTunes

1 сезон

13

1 сезон

Deluxe

pack

Рекомендуем

Repack

30

ВАЖНО

RePack

MK11

RePack

jed

RePack

fifa19

RePack

RDR2

RePack

NEED FOR SPEED™ PAYBACK

Кинопоиск HD

6 сезон

 Острые козырьки 6 сезон

Все сериалы

все сериалы на PB.wtf

RePack

FAR CRY 5
  
Magnet ссылка

Выпускной год / Выпускной класс / Senior Year (Алекс Хардкасл) [2022, драма, комедия, WEB-DLRip-AVC] MVO [Pazl Voice] от ExKinoRay pb.wtf

Выпускной год через торрент pb.wtf

Раздают: 17 [ 19 KB/s ] Качают: 1 [ 0 KB/s ]
Размер: 2.21 GB | Добавлен: 2 мес. 27 д. назад | Торрент скачан:187 раз
Смотреть онлайн Выпускной год | Скачать    Ребята, помогите собрать деньги на оплату серверов!!!

16-05-2022 18:55 Выпускной год Скачать торрент  


Выпускной год / Выпускной класс / Senior Year
Информация о фильме:
Название: Выпускной год / Выпускной класс
Оригинальное название: Senior Year
Год выхода: 2022
Жанр: драма, комедия
Режиссер: Алекс Хардкасл
В ролях: Ребел Уилсон, Джастин Хартли, Алисия Сильверстоун, Энгаури Райс, Брэндон Скотт Джонс, Сэм Ричардсон, Зои Чао, Мэри Холлэнд, Крис Парнелл, Майкл Чимино, Джереми Рэй Тейлор, Joshua Colley, Avantika, Молли Браун, Тайлер Барнхардт

Описание: 37-летняя женщина приходит в себя после двадцати лет, проведенных в коме, и возвращается в старшую школу, где когда-то была популярной чирлидершей.



Страна: США
Студия: Paramount Pictures, Broken Road Productions, Paramount Players, CBS Films
Продолжительность: 01:53:30
Перевод: Любительский, двухголосый закадровый - Pazl Voice



Информация о файле:
Кодек: AVC
Формат: MKV
Качество: WEB-DLRip-AVC
Видео: MPEG-4 AVC, 1024x436, 24,000 fps, 1890 kbps
Аудио RU: AC3, 6 ch, 48 kHz, 448 kbps
Аудио EN: AC3, 6 ch, 48 kHz, 448 kbps
Субтитры: Русские, английские



x264 info: frame I:1666 Avg QP:15.64 size: 66392
x264 info: frame P:37750 Avg QP:19.57 size: 20795
x264 info: frame B:124039 Avg QP:21.72 size: 5742
General
Unique ID : 213327518964973697850554514098162302022 (0xA07D62BB8218925E498E9A795C90FC46)
Complete name : D:uTorrentРипы wolf1245Senior Year.2022.DVO.Pazl.x264.WEB-DLRip-AVC.[wolf1245.ExKinoRay].mkv
Format : Matroska
Format version : Version 4
File size : 2.21 GiB
Duration : 1 h 53 min
Overall bit rate : 2 787 kb/s
Movie name : Senior Year.2022.DVO.Pazl.x264.WEB-DLRip-AVC.[wolf1245.ExKinoRay]
Encoded date : UTC 2022-05-16 18:44:14
Writing application : mkvmerge v67.0.0 ('Under Stars') 64-bit
Writing library : libebml v1.4.2 + libmatroska v1.6.4
Video
ID : 1
Format : AVC
Format/Info : Advanced Video Codec
Format profile : [email protected]
Format settings : CABAC / 12 Ref Frames
Format settings, CABAC : Yes
Format settings, Reference frames : 12 frames
Codec ID : V_MPEG4/ISO/AVC
Duration : 1 h 53 min
Bit rate : 1 890 kb/s
Width : 1 024 pixels
Height : 436 pixels
Display aspect ratio : 2.35:1
Frame rate mode : Constant
Frame rate : 24.000 FPS
Color space : YUV
Chroma subsampling : 4:2:0
Bit depth : 8 bits
Scan type : Progressive
Bits/(Pixel*Frame) : 0.176
Stream size : 1.50 GiB (68%)
Title : -=[wolf1245.ExKinoRay]=-
Writing library : x264 core 163 r3060 5db6aa6
Encoding settings : cabac=1 / ref=12 / deblock=1:-2:-2 / analyse=0x3:0x133 / me=umh / subme=10 / psy=1 / psy_rd=1.00:0.15 / mixed_ref=1 / me_range=32 / chroma_me=1 / trellis=2 / 8x8dct=1 / cqm=0 / deadzone=22,11 / fast_pskip=1 / chroma_qp_offset=-3 / threads=10 / lookahead_threads=2 / sliced_threads=0 / nr=0 / decimate=0 / interlaced=0 / bluray_compat=0 / constrained_intra=0 / bframes=10 / b_pyramid=2 / b_adapt=2 / b_bias=0 / direct=3 / weightb=1 / open_gop=0 / weightp=2 / keyint=240 / keyint_min=24 / scenecut=40 / intra_refresh=0 / rc_lookahead=60 / rc=2pass / mbtree=0 / bitrate=1890 / ratetol=1.0 / qcomp=0.60 / qpmin=0 / qpmax=69 / qpstep=4 / cplxblur=20.0 / qblur=0.5 / vbv_maxrate=50000 / vbv_bufsize=62500 / nal_hrd=none / filler=0 / ip_ratio=1.40 / pb_ratio=1.30 / aq=3:0.80
Language : English
Default : Yes
Forced : No
Audio #1
ID : 2
Format : AC-3
Format/Info : Audio Coding 3
Commercial name : Dolby Digital
Codec ID : A_AC3
Duration : 1 h 53 min
Bit rate mode : Constant
Bit rate : 448 kb/s
Channel(s) : 6 channels
Channel layout : L R C LFE Ls Rs
Sampling rate : 48.0 kHz
Frame rate : 31.250 FPS (1536 SPF)
Compression mode : Lossy
Stream size : 364 MiB (16%)
Title : MVO | Pazl Voice | RUS
Language : Russian
Service kind : Complete Main
Default : Yes
Forced : No
Audio #2
ID : 3
Format : AC-3
Format/Info : Audio Coding 3
Commercial name : Dolby Digital
Codec ID : A_AC3
Duration : 1 h 53 min
Bit rate mode : Constant
Bit rate : 448 kb/s
Channel(s) : 6 channels
Channel layout : L R C LFE Ls Rs
Sampling rate : 48.0 kHz
Frame rate : 31.250 FPS (1536 SPF)
Compression mode : Lossy
Stream size : 364 MiB (16%)
Title : Original | ENG
Language : English
Service kind : Complete Main
Default : Yes
Forced : No
Text #1
ID : 4
Format : UTF-8
Codec ID : S_TEXT/UTF8
Codec ID/Info : UTF-8 Plain Text
Duration : 1 h 51 min
Bit rate : 120 b/s
Count of elements : 1758
Stream size : 97.8 KiB (0%)
Language : Russian
Default : No
Forced : No
Text #2
ID : 5
Format : UTF-8
Codec ID : S_TEXT/UTF8
Codec ID/Info : UTF-8 Plain Text
Duration : 1 h 48 min
Bit rate : 80 b/s
Count of elements : 1760
Stream size : 64.0 KiB (0%)
Language : English
Default : No
Forced : No
Text #3
ID : 6
Format : UTF-8
Codec ID : S_TEXT/UTF8
Codec ID/Info : UTF-8 Plain Text
Duration : 1 h 51 min
Bit rate : 107 b/s
Count of elements : 2299
Stream size : 87.3 KiB (0%)
Title : SDH
Language : English
Default : No
Forced : No
Релиз от:
Автор релиза:
pb.wtf



Скачать Выпускной год через торрент http://i117.fastpic.org/big/2022/0515/d4/d9c6fd7a5d15f260853cb5101dccfdd4.jpg Скачать, смотреть онлайн Выпускной год бесплантно в хорошем качестве Описание: 37-летняя женщина приходит в себя после двадцати лет, проведенных в коме, и возвращается в старшую школу, где когда-то была ... 8.2 10 5
Торрент: Зарегистрирован [2022-05-16 18:55] · скачан: 187 раз
Статус: T временная
Размер: 2.21 GB
Как cкачать? Как скачать Выпускной год через торрент | UTorrent

28-11-2019 20:33  

Отключить вcю реклaмy на сайте

19-05-2022 17:26 Выпускной год Скачать торрент  

Без гомосятины фильмы разучились сниматьpb.wtf



    Дорогой пользователь! Огромная просьба, поблагодарите релизера, оцените раздачу и оставьте свои комментарий, если Вы скачали Выпускной год через торрент бесплатно!
    Комментировать посты могут только пользователи прошедшие не сложную регистрацию
    Показать сообщения:    

    Выпускной год через торрент
    Скачать бесплатно Выпускной год
    Выпускной год скачать торрент
    Выпускной год смотреть онлайн
    Cкачать фильм Выпускной год бесплатно
    Выпускной год скачать торрент в хорошем качестве
    Выпускной год смотреть онлайн бесплатно в хорошем качестве


    Вы можете начинать темы
    Вы можете отвечать на сообщения
    Вы не можете редактировать свои сообщения
    Вы не можете удалять свои сообщения
    Вы не можете голосовать в опросах
    Вы не можете прикреплять файлы к сообщениям
    Вы можете скачивать файлы