Всегда рабочее зеркало без VPN и Proxy просто перед .vidak.icu напиши любое слово или цифру, Пример http://1h1r.vidak.icu

Лицензия

MVO

1 сезон

1

1 сезон

iTunes

1 сезон

13

1 сезон

Deluxe

pack

Рекомендуем

Repack

30

ВАЖНО

RePack

MK11

RePack

jed

RePack

fifa19

RePack

RDR2

RePack

NEED FOR SPEED™ PAYBACK

Кинопоиск HD

6 сезон

 Острые козырьки 6 сезон

Все сериалы

все сериалы на PB.wtf

RePack

FAR CRY 5
  
Magnet ссылка

Нулевой пациент / Сезон: 1 / Серии: 1-7 из 7 + Фильм о фильме (Сергей Трофимов, Евгений Стычкин) [2022, Драма, WEBRip 1080p] pb.wtf

Нулевой пациент через торрент pb.wtf

Раздают: 6 [ 514 KB/s ] Качают: 1 [ 0 KB/s ]
Размер: 17.83 GB | Добавлен: 1 мес. 24 д. назад | Торрент скачан:184 раза
Смотреть онлайн Нулевой пациент | Скачать    Ребята, помогите собрать деньги на оплату серверов!!!

19-05-2022 02:58 Нулевой пациент Скачать торрент  

Нулевой пациент
Год выпуска: 2022
Страна: Россия
Жанр: Драма
Продолжительность: ~ 00:50:00
Перевод: Не требуется
Субтитры: Русские (полные)

Режиссер: Сергей Трофимов, Евгений Стычкин

rating

В ролях: Аскар Ильясов, Никита Ефремов, Елизавета Шакира, Евгения Манджиева, Евгений Стычкин, Павел Майков, Игорь Гордин, Виктория Агалакова, Сейдулла Молдаханов, Иван Добронравов, Игорь Бочкин, Анастасия Болдырева, Евгений Сытый, Анабелла Посохова, Николай Шрайбер, Анастасия Грачёва, Евгений Писарев, Владимир Стеклов, Алексей Маклаков, Мадлен Джабраилова, Дмитрий Колчин, Роман Синицын, Евгений Санников, Александр Никольский, Олег Суховерхов, Александра Черкасова-Служитель, Сергей Гостюжев, Геннадий Смирнов, Баира Манджиева, Владимир Пашкаев, Нуране Атхаева, Лира Кекеева, Алексей Максименко, Александр Ковалёв, Давид Ниамеди, Кристина Шелобкова, Григорий Перель, Татьяна Полосина, Сергей Тезов, Елена Одинцова, Сергей Годин, Вячеслав Щенин, Мария Померанцева, Ольга Плешкова, Юлия Джулай, Эвелина Мазурина, Олег Жуков, Александр Пахомов, Анатолий Просалов, Сергей Иванюк, Артем Манукян, Андрей Харенко, Любовь Германова, Анастасия Куза, Надежда Варочкина, Елена Посоюзных, Артем Семакин, Юрий Лопарев, Сергей Померанцев, Александр Базоев, Дмитрий Титов, Виктор Башинский, Владимир Беркун, Александр Комиссаров, Александр Сибирцев, Ольга Незговорова, Максим Емельянов, Евгений Потапенко, Юлия Лопанова, Ольга Анохина, Светлана Васина, Нариман Утакаев, Ирина Паутова, Алла Малкова, Аюш Очир-Горяев, Рамиль Сабитов, Аслан Цаллати, Адьян Бакаев, Никита Волошин, Очир Эрднеев, Баин Бовальдинов, Ксения Рябинкина, Егор Моисеев, Любовь Владимирова, Нина Гусева, Азамат Нигманов, Дмитрий Радонов, Сергей Уманов, Виталий Ходин, Николай Алипа, Евгения Шипова, Иван Кукуев, Михаил Салин, Юлия Черепнина, Екатерина Фоменко, Алексей Фетисов, Нина Андронаки, Ольга Калашникова, Александр Стешенко, Нариман Бахтияров, Екатерина Кротова, Юлия Куксина, Михаил Левин, Денис Бекетов, Ирик Темерьянов

Описание: 1988 год, Калмыцкая АССР. Молодой врач детской больницы Кирсан Аюшев подозревает, что у нескольких его пациентов ВИЧ. Старшие коллеги не верят, что такое возможно, поэтому Кирсан тайком отправляет пробы в Москву. Когда анализы подтверждают его правоту, к делу подключается ученый Дмитрий Гончаров - специалист по малоизвестной в СССР «экзотической» болезни. Теперь судьба десятков детей и нескольких взрослых - а, возможно, и всей страны - зависит от действий столичного эпидемиолога и провинциального педиатра.

Качество: WEBRip 1080p
Формат: MKV

Видео: MPEG-4 AVC, 1920x804, ~ 6000 Кбит/с, 0.155 bit/pixel, 25 Кадр/с
Аудио 1: AC3, 48,0 КГц, 6 ch, 448 Кбит/с
Аудио 2: E-AC3, 48,0 КГц, 6 ch, 448 Кбит/с
скриншот  скриншот  скриншот  скриншот  скриншот  скриншот  

Общее
Уникальный идентификатор : 65594012178748668586967839213252671303 (0x3158F27D30C414C40F9DD41BCA067747)
Полное имя : D:\Nulevoj.pacient.S01.2022.WEB-DL.1080p\Nulevoj.pacient.S01.E01.2022.WEB-DL.1080p.mkv
Формат : Matroska
Версия формата : Version 4
Размер файла : 2,22 Гбайт
Продолжительность : 46 м. 43 с.
Общий поток : 6 811 Кбит/сек
Название фильма : Nulevoj.pacient.S01.E01.2022.WEB-DL.1080p
Дата кодирования : UTC 2022-05-18 21:33:09
Программа кодирования : mkvmerge v66.0.0 ('Josie') 64-bit
Библиотека кодирования : libebml v1.4.2 + libmatroska v1.6.4
Attachments : poster.jpg

Видео
Идентификатор : 1
Формат : AVC
Формат/Информация : Advanced Video Codec
Профиль формата : [email protected]
Настройки формата : CABAC / 5 Ref Frames
Параметр CABAC формата : Да
Параметр RefFrames формата : 5 кадров
Идентификатор кодека : V_MPEG4/ISO/AVC
Продолжительность : 46 м. 43 с.
Битрейт : 6 000 Кбит/сек
Ширина : 1 920 пикселей
Высота : 804 пикселя
Соотношение сторон : 2,40:1
Режим частоты кадров : Постоянный
Частота кадров : 25,000 кадров/сек
Цветовое пространство : YUV
Субдискретизация насыщенности : 4:2:0
Битовая глубина : 8 бит
Тип развёртки : Прогрессивная
Бит/(Пиксели*Кадры) : 0.155
Размер потока : 1,93 Гбайт (87%)
Библиотека кодирования : x264 core 157
Настройки программы : cabac=1 / ref=5 / deblock=1:0:0 / analyse=0x3:0x133 / me=umh / subme=10 / psy=1 / psy_rd=1.00:0.00 / mixed_ref=1 / me_range=24 / chroma_me=1 / trellis=2 / 8x8dct=1 / cqm=0 / deadzone=21,11 / fast_pskip=1 / chroma_qp_offset=-2 / threads=25 / lookahead_threads=4 / sliced_threads=0 / nr=0 / decimate=1 / interlaced=0 / bluray_compat=0 / stitchable=1 / constrained_intra=0 / bframes=8 / b_pyramid=2 / b_adapt=2 / b_bias=0 / direct=3 / weightb=1 / open_gop=0 / weightp=2 / keyint=250 / keyint_min=25 / scenecut=40 / intra_refresh=0 / rc_lookahead=60 / rc=2pass / mbtree=1 / bitrate=6000 / ratetol=1.0 / qcomp=0.60 / qpmin=0 / qpmax=69 / qpstep=4 / cplxblur=20.0 / qblur=0.5 / vbv_maxrate=6600 / vbv_bufsize=24000 / nal_hrd=none / filler=0 / ip_ratio=1.40 / aq=1:1.00
Default : Да
Forced : Нет

Аудио #1
Идентификатор : 2
Формат : AC-3
Формат/Информация : Audio Coding 3
Коммерческое название : Dolby Digital
Идентификатор кодека : A_AC3
Продолжительность : 46 м. 43 с.
Вид битрейта : Постоянный
Битрейт : 448 Кбит/сек
Каналы : 6 каналов
Channel layout : L R C LFE Ls Rs
Частота : 48,0 КГц
Частота кадров : 31,250 кадров/сек (1536 SPF)
Метод сжатия : С потерями
Размер потока : 150 Мбайт (7%)
Заголовок : [AC3 Audio]
Язык : Russian
Service kind : Complete Main
Default : Да
Forced : Нет

Аудио #2
Идентификатор : 3
Формат : E-AC-3
Формат/Информация : Enhanced AC-3
Коммерческое название : Dolby Digital Plus
Идентификатор кодека : A_EAC3
Продолжительность : 46 м. 43 с.
Вид битрейта : Постоянный
Битрейт : 448 Кбит/сек
Каналы : 6 каналов
Channel layout : L R C LFE Ls Rs
Частота : 48,0 КГц
Частота кадров : 31,250 кадров/сек (1536 SPF)
Метод сжатия : С потерями
Размер потока : 150 Мбайт (7%)
Заголовок : [E-AC3 Audio]
Язык : Russian
Service kind : Complete Main
Default : Нет
Forced : Нет

Текст
Идентификатор : 4
Формат : UTF-8
Идентификатор кодека : S_TEXT/UTF8
Идентификатор кодека/Информация : UTF-8 Plain Text
Продолжительность : 41 м. 6 с.
Битрейт : 88 бит/сек
Count of elements : 520
Размер потока : 26,6 Кбайт (0%)
Заголовок : [Full]
Язык : Russian
Default : Нет
Forced : Нет

Внимание! Раздача ведётся путём добавления новых серий; при каждом добавлении создаётся новый торрент.
Чтобы начать докачку новой серии, пользователям необходимо сделать следующее:
1. Остановить скачивание;
2. Удалить старый торрент у себя из клиента (старые серии удалять не надо);
3. Скачать новый торрент и запустить его у себя в клиенте вместо старого, при этом указать клиенту путь в старую папку куда и должно происходить скачивание новых серий. Ваш клиент при этом должен произвести хеширование (проверку) старой папки и будет докачивать только те серии, которых у вас ещё нет. Старые серии при этом не удаляются, а продолжают раздаваться! Eсли вы уже удалили старые серии, то предотвратить повторную закачку старых серий можно, отжав галочку в соответствующих местах при запуске нового торрента.

pb.wtf



Скачать Нулевой пациент через торрент https://i117.fastpic.org/big/2022/0519/89/b97c96123d10bf6587113d45ce887489.png Скачать, смотреть онлайн Нулевой пациент бесплантно в хорошем качестве Описание: 1988 год, Калмыцкая АССР. Молодой врач детской больницы Кирсан Аюшев подозревает, что у нескольких его пациентов ВИЧ. Старшие ... 9.1 10 22
Торрент: Зарегистрирован [2022-06-23 04:10] · скачан: 184 раз
Статус: √ проверено
Размер: 17.83 GB
Как cкачать? Как скачать Нулевой пациент через торрент | UTorrent

% Раздел Тема Автор DL S | L
Наши сериалы [ 5.49 GB ] Нулевой пациент / Сезон: 1 / Серии: 1-7 из 7 + [2022 WEBRip] GEKADOL Скачать
11 | 2
Наши сериалы [ 12.64 GB ] Нулевой пациент / Сезон: 1 / Серии: 1-7 из 7 + Фильм о фильме [2022 WEBRip 720p] bober100 Скачать
6 | 1
Наши сериалы [ 6.38 GB ] Нулевой пациент / Сезон: 1 / Серии: 1-7 из 7 + Фильм о фильме [2022 WEBRip-AVC] bober100 Скачать
15 | 2


Последний раз редактировалось: bober100 (2022-06-23 04:10), всего редактировалось 8 раз(а)

28-11-2019 20:33  

Отключить вcю реклaмy на сайте

19-05-2022 08:32 Нулевой пациент Скачать торрент  

Я вот не пойму, что, этот Никита Ефремов, такой уж хороший актёр, что его постоянно везде лепят, причём в главных, или близких к этому ролях? По моему таких актёров десятки тысяч в России.pb.wtf



27-05-2022 00:25 Нулевой пациент Скачать торрент  

а как сериал то *?pb.wtf



05-06-2022 03:58 Нулевой пациент Скачать торрент  

ZavR писал(а):

а как сериал то *?

да шиза ...pb.wtf



    Дорогой пользователь! Огромная просьба, поблагодарите релизера, оцените раздачу и оставьте свои комментарий, если Вы скачали Нулевой пациент через торрент бесплатно!
    Комментировать посты могут только пользователи прошедшие не сложную регистрацию
    Показать сообщения:    

    Нулевой пациент через торрент
    Скачать бесплатно Нулевой пациент
    Нулевой пациент скачать торрент
    Нулевой пациент смотреть онлайн
    Cкачать фильм Нулевой пациент бесплатно
    Нулевой пациент скачать торрент в хорошем качестве
    Нулевой пациент смотреть онлайн бесплатно в хорошем качестве


    Вы не можете начинать темы
    Вы не можете отвечать на сообщения
    Вы не можете редактировать свои сообщения
    Вы не можете удалять свои сообщения
    Вы не можете голосовать в опросах
    Вы не можете прикреплять файлы к сообщениям
    Вы можете скачивать файлы