Доктор Стрэндж

Лицензия

Добыча

Дубляж

Уэнсдэй

1 сезон

Тор

Дубляж

В эфире

Дубляж

Там, где раки поют

MVO

Властелин колец

1 сезон

Deluxe

pack

Рекомендуем

30

Пиратка

ВАЖНО

ВАЖНО

Ghostwire

Пиратка

jed

RePack

nioh2

RePack

RDR2

RePack

NEED FOR SPEED™ PAYBACK

RePack

скачать торрент

Кинопоиск HD

Острые козырьки 6 сезон

6 сезон

FAR CRY 6

RePack

скачать торрент

Лицензия

скачать торрент

MVO

1

1 сезон

скачать торрент

1 сезон

скачать торрент

Лицензия

  

Плохие парни / The Bad Guys (Роджер Аллерс) [2022, Мультфильм, комедия, криминал, приключения, семейный, BDRip-AVC] MVO [Jaskier]

Плохие парни через торрент pb.wtf

Раздают: 3 [ 0 KB/s ]
Размер: 1.46 GB | Добавлен: 6 мес. назад | Торрент скачан:192 раза
Смотреть онлайн | Скачать   

21-05-2022 07:31 Плохие парни Скачать торрент  

Плохие парни
The Bad Guys

Год выпуска: 2022
Страна: США
Выпущено: DreamWorks Animation, Universal Pictures
Жанр: Мультфильм, комедия, криминал, приключения, семейный
Продолжительность: 01:40:07
Перевод: Профессиональный (многоголосый) | Jaskier
Субтитры: отсутствуют

Режиссер: Роджер Аллерс

rating

В ролях: Сэм Рокуэлл, Марк Мэрон, Аквафина, Крэйг Робинсон, Энтони Рамос, Ричард Айоади, Зази Битц, Алекс Борштейн, Лилли Сингх, Барбара Гудсон, Дина Морроне, Майкл Годер, Келли Куни Силелла, Уолт Дорн, Дэвид П. Смит

Описание: Мир еще не видел столь искусных авантюристов: ловкий карманник Мистер Волк, опытный взломщик сейфов Мистер Змей, хладнокровный мастер маскировки Мистер Акула, вспыльчивый и мускулистый Мистер Пиранья, а также остроумная хакер высшего класса Мисс Тарантула. Однако даже самые умные преступники иногда допускают ошибки. Чтобы спастись от неминуемый тюрьмы, главарь банды Мистер Волк вынужден идти на крайние меры: «Плохие парни» должны измениться в лучшую сторону. Или сделать вид? Но когда новый злодей угрожает городу, сможет ли Мистер Волк убедить остальных действительно стать… хорошими ребятами?

Качество: BDRip-AVC
Формат: MKV

Видео: MPEG-4 AVC, 1008x422 (2,40:1), 1638 kbps, 23,976 fps
Аудио: 48 kHz, AC3 Dolby Digital, 3/2 (L, C, R, l, r) + LFE ch, ~448 Kbps
скриншот  скриншот  скриншот  скриншот  скриншот  скриншот  

Общее
Уникальный идентификатор : 312586577055408605423588873827559762132 (0xEB29FC222C831377F7CC4E45B39568D4)
Полное имя : D:The.Bad.Guys.2022.RUS.BDRip.x264.-HELLYWOOD.mkv
Формат : Matroska
Версия формата : Version 4
Размер файла : 1,46 Гбайт
Продолжительность : 1 ч. 40 м.
Общий поток : 2 088 Кбит/сек
Название фильма : The Bad Guys (2022)
Дата кодирования : UTC 2022-05-21 07:09:07
Программа кодирования : mkvmerge v62.0.0 ('Apollo') 64-bit
Библиотека кодирования : libebml v1.4.2 + libmatroska v1.6.4

Видео
Идентификатор : 1
Формат : AVC
Формат/Информация : Advanced Video Codec
Профиль формата : [email protected]
Настройки формата : CABAC / 12 Ref Frames
Параметр CABAC формата : Да
Параметр RefFrames формата : 12 кадров
Идентификатор кодека : V_MPEG4/ISO/AVC
Продолжительность : 1 ч. 40 м.
Битрейт : 1 638 Кбит/сек
Ширина : 1 008 пикселей
Высота : 422 пикселя
Соотношение сторон : 2,40:1
Режим частоты кадров : Постоянный
Частота кадров : 23,976 (24000/1001) кадра/сек
Цветовое пространство : YUV
Субдискретизация насыщенности : 4:2:0
Битовая глубина : 8 бит
Тип развёртки : Прогрессивная
Бит/(Пиксели*Кадры) : 0.161
Размер потока : 1,12 Гбайт (77%)
Заголовок : potroks
Библиотека кодирования : x264 core 163
Настройки программы : cabac=1 / ref=12 / deblock=1:-1:-1 / analyse=0x3:0x133 / me=umh / subme=11 / psy=1 / psy_rd=0.97:0.00 / mixed_ref=1 / me_range=32 / chroma_me=0 / trellis=2 / 8x8dct=1 / cqm=0 / deadzone=21,11 / fast_pskip=0 / chroma_qp_offset=-2 / threads=19 / lookahead_threads=3 / sliced_threads=0 / nr=0 / decimate=1 / interlaced=0 / bluray_compat=0 / constrained_intra=0 / bframes=11 / b_pyramid=2 / b_adapt=2 / b_bias=0 / direct=0 / weightb=1 / open_gop=0 / weightp=2 / keyint=240 / keyint_min=23 / scenecut=40 / intra_refresh=0 / rc_lookahead=100 / rc=2pass / mbtree=0 / bitrate=1638 / ratetol=1.0 / qcomp=0.70 / qpmin=0 / qpmax=69 / qpstep=5 / cplxblur=20.0 / qblur=0.5 / vbv_maxrate=50000 / vbv_bufsize=62500 / nal_hrd=none / filler=0 / ip_ratio=1.40 / pb_ratio=1.30 / aq=1:0.80
Язык : English
Default : Да
Forced : Нет

Аудио
Идентификатор : 2
Формат : AC-3
Формат/Информация : Audio Coding 3
Коммерческое название : Dolby Digital
Идентификатор кодека : A_AC3
Продолжительность : 1 ч. 40 м.
Вид битрейта : Постоянный
Битрейт : 448 Кбит/сек
Каналы : 6 каналов
Channel layout : L R C LFE Ls Rs
Частота : 48,0 КГц
Частота кадров : 31,250 кадров/сек (1536 SPF)
Метод сжатия : С потерями
Размер потока : 321 Мбайт (21%)
Заголовок : MVO | DD 5.1 @ 448 kbps - Jaskier
Язык : Russian
Service kind : Complete Main
Default : Да
Forced : Нет

Меню
00:00:00.000 : en:Chapter 01
00:03:09.439 : en:Chapter 02
00:09:08.965 : en:Chapter 03
00:14:07.847 : en:Chapter 04
00:20:35.484 : en:Chapter 05
00:27:24.976 : en:Chapter 06
00:32:08.927 : en:Chapter 07
00:36:16.549 : en:Chapter 08
00:41:26.775 : en:Chapter 09
00:45:50.164 : en:Chapter 10
00:49:08.820 : en:Chapter 11
00:55:01.089 : en:Chapter 12
00:58:38.890 : en:Chapter 13
01:05:41.020 : en:Chapter 14
01:10:36.232 : en:Chapter 15
01:12:40.439 : en:Chapter 16
01:15:45.165 : en:Chapter 17
01:20:25.195 : en:Chapter 18
01:25:28.832 : en:Chapter 19
01:30:56.325 : en:Chapter 20




Скачать Плохие парни через торрент https://i7-imageban-ru.translate.goog/out/2022/05/21/db295d69972738563223a044fb844a56.png Скачать, смотреть онлайн Плохие парни бесплантно в хорошем качестве Описание: Мир еще не видел столь искусных авантюристов: ловкий карманник Мистер Волк, опытный взломщик сейфов Мистер Змей, хладнокровный ... 10 10 5
Торрент: Зарегистрирован [2022-05-21 07:31] · скачан: 192 раз
Статус: √ проверено
Размер: 1.46 GB
Как cкачать? Как скачать Плохие парни через торрент | UTorrent

% Раздел Тема Автор DL S | L
Иностранные мультфильмы [ 746 MB ] Плохие парни / The Bad Guys | Пифагор | BDRip bober100 Скачать
7 | 0
Иностранные мультфильмы [ 1.42 GB ] Плохие парни / The Bad Guys | Пифагор | BDRip bober100 Скачать
3 | 0
Зарубежные Мультфильмы (BDRip 1080p, 720p, Blu-ray, BD-Remux) [ 24.89 GB ] Плохие парни / The Bad Guys | Jaskier | BD Remux 1080p bober100 Скачать
1 | 0
Зарубежные Мультфильмы (BDRip 1080p, 720p, Blu-ray, BD-Remux) [ 15.36 GB ] Плохие парни / The Bad Guys | Jaskier | 1080p bober100 Скачать
3 | 0
Зарубежные Мультфильмы (BDRip 1080p, 720p, Blu-ray, BD-Remux) [ 7.8 GB ] Плохие парни / The Bad Guys | Jaskier | 720p bober100 Скачать
5 | 0
Мультфильмы (48-60 fps) [ 3.37 GB ] Плохие парни / The Bad Guys | | DLRip 720p / 60 FPS MVO slaventi-69 Скачать
4 | 0
Иностранные мультфильмы [ 1.46 GB ] Плохие парни / The Bad Guys | Jaskier | DLRip bober100 Скачать
9 | 0

28-11-2019 20:33  


Отключить вcю реклaмy на сайте, в т.ч. и в плеере онлайн просмотра!

    Дорогой пользователь! Огромная просьба, поблагодарите релизера, оцените раздачу и оставьте свои комментарий, если Вы скачали Плохие парни через торрент бесплатно!!
    Комментировать посты могут только пользователи прошедшие не сложную регистрацию
    Показать сообщения:    


    Плохие парни через торрент
    Скачать бесплатно Плохие парни
    Плохие парни скачать торрент
    Плохие парни смотреть онлайн
    Cкачать фильм Плохие парни бесплатно
    Плохие парни скачать торрент в хорошем качестве
    Плохие парни смотреть онлайн бесплатно в хорошем качестве
    Вы не можете начинать темы
    Вы не можете отвечать на сообщения
    Вы не можете редактировать свои сообщения
    Вы не можете удалять свои сообщения
    Вы не можете голосовать в опросах
    Вы не можете прикреплять файлы к сообщениям
    Вы можете скачивать файлы
    Плохие парни / The Bad Guys [2022, Мультфильм, комедия, криминал, приключения, семейный, BDRip-AVC] MVO [Jaskier] смотреть онлайн, скачать торрент picoco.icu