Доктор Стрэндж

Лицензия

Добыча

Дубляж

Дом дракона

1 сезон

Тор

Дубляж

В эфире

Дубляж

Там, где раки поют

MVO

Властелин колец

1 сезон

Deluxe

pack

Рекомендуем

30

Пиратка

ВАЖНО

ВАЖНО

Ghostwire

Пиратка

jed

RePack

nioh2

RePack

RDR2

RePack

NEED FOR SPEED™ PAYBACK

RePack

скачать торрент

Кинопоиск HD

Острые козырьки 6 сезон

6 сезон

FAR CRY 6

RePack

скачать торрент

Лицензия

скачать торрент

MVO

1

1 сезон

скачать торрент

1 сезон

скачать торрент

Лицензия

  

Чип и Дейл спешат на помощь / Chip 'n Dale: Rescue Rangers (Акива Шаффер) [2022, Мультфильм, комедия, детектив, приключения, семейный, WEB-DLRip-AVC] MVO [Jaskier] от ExKinoRay

Чип и Дейл спешат на помощь через торрент pb.wtf

Раздают: 6 [ 0 KB/s ]
Размер: 1.88 GB | Добавлен: 6 мес. назад | Торрент скачан:329 раз
Смотреть онлайн | Скачать   

25-05-2022 19:30 Чип и Дейл спешат на помощь Скачать торрент  


Чип и Дейл спешат на помощь / Chip 'n Dale: Rescue Rangers
Название: Чип и Дейл спешат на помощь
Оригинальное название: Chip 'n Dale: Rescue Rangers
Год выхода: 2022
Жанр: Мультфильм, комедия, детектив, приключения, семейный
Режиссер: Акива Шаффер

В ролях: Энди Сэмберг, Джон Малэйни, КиКи Лэйн, Уилл Арнетт, Эрик Бана, Флула Борг, Дэннис Хэйсбёрт, Кигэн-Майкл Ки, Тресс МакНилл, Тим Робинсон

Описание: «Чип и Дейл спешат на помощь» — известное шоу, в котором когда-то снимались бурундуки и их друзья. Прошло 30 лет. Чип стал страховым агентом, а Дейл зарабатывает, рассказывая о своих прежних успехах на разных фестивалях. Но когда пропадает их друг, бурундуки снова объединяются, чтобы спасти товарища.



Страна: США
Студия: Mandeville Films, Walt Disney Pictures, Big Flick Rentals, The Moving Picture Company, Technicolor Limited
Продолжительность: 01:36:45
Перевод: Профессиональный (многоголосый, закадровый) - Jaskier



Информация о файле:
Кодек: AVC
Формат: MKV
Качество: WEB-DLRip-AVC
Видео: MPEG-4 AVC, 1024x428, 24,000 fps, 1890 kbps
Аудио RU: AC3, 6 ch, 48 kHz, 448 kbps
Аудио EN: AC3, 6 ch, 48 kHz, 448 kbps
Субтитры: Русские (Cool Story Blog), английские



x264 info: frame I:1320 Avg QP:15.16 size: 63200
x264 info: frame P:35026 Avg QP:18.34 size: 19205
x264 info: frame B:102995 Avg QP:20.19 size: 5953
General
Unique ID : 4551693279846353817361964889198826463 (0x36C9FCE18B0CE7B3BCC1BE778A013DF)
Complete name : D:uTorrentРипы wolf1245Chip 'n Dale- Rescue Rangers.2022.MVO.Jaskier.x264.WEB-DLRip-AVC.[wolf1245.ExKinoRay].mkv
Format : Matroska
Format version : Version 4
File size : 1.88 GiB
Duration : 1 h 36 min
Overall bit rate : 2 785 kb/s
Movie name : Chip 'n Dale: Rescue Rangers.2022.MVO.Jaskier.x264.WEB-DLRip-AVC.[wolf1245.ExKinoRay]
Encoded date : UTC 2022-05-25 19:18:32
Writing application : mkvmerge v68.0.0 ('The Curtain') 64-bit
Writing library : libebml v1.4.2 + libmatroska v1.6.4
Video
ID : 1
Format : AVC
Format/Info : Advanced Video Codec
Format profile : [email protected]
Format settings : CABAC / 12 Ref Frames
Format settings, CABAC : Yes
Format settings, Reference frames : 12 frames
Codec ID : V_MPEG4/ISO/AVC
Duration : 1 h 36 min
Bit rate : 1 890 kb/s
Width : 1 024 pixels
Height : 428 pixels
Display aspect ratio : 2.40:1
Frame rate mode : Constant
Frame rate : 24.000 FPS
Color space : YUV
Chroma subsampling : 4:2:0
Bit depth : 8 bits
Scan type : Progressive
Bits/(Pixel*Frame) : 0.180
Stream size : 1.28 GiB (68%)
Title : -=[wolf1245.ExKinoRay]=-
Writing library : x264 core 163 r3060 5db6aa6
Encoding settings : cabac=1 / ref=12 / deblock=1:-2:-2 / analyse=0x3:0x133 / me=umh / subme=11 / psy=1 / psy_rd=0.00:0.15 / mixed_ref=1 / me_range=32 / chroma_me=1 / trellis=2 / 8x8dct=1 / cqm=0 / deadzone=22,11 / fast_pskip=1 / chroma_qp_offset=-1 / threads=10 / lookahead_threads=2 / sliced_threads=0 / nr=0 / decimate=0 / interlaced=0 / bluray_compat=0 / constrained_intra=0 / bframes=10 / b_pyramid=2 / b_adapt=2 / b_bias=0 / direct=3 / weightb=1 / open_gop=0 / weightp=2 / keyint=240 / keyint_min=24 / scenecut=40 / intra_refresh=0 / rc_lookahead=60 / rc=2pass / mbtree=0 / bitrate=1890 / ratetol=1.0 / qcomp=0.60 / qpmin=0 / qpmax=69 / qpstep=4 / cplxblur=20.0 / qblur=0.5 / vbv_maxrate=50000 / vbv_bufsize=62500 / nal_hrd=none / filler=0 / ip_ratio=1.40 / pb_ratio=1.30 / aq=3:0.90
Language : English
Default : Yes
Forced : No
Color range : Limited
Color primaries : BT.709
Transfer characteristics : BT.709
Matrix coefficients : BT.709
Audio #1
ID : 2
Format : AC-3
Format/Info : Audio Coding 3
Commercial name : Dolby Digital
Codec ID : A_AC3
Duration : 1 h 36 min
Bit rate mode : Constant
Bit rate : 448 kb/s
Channel(s) : 6 channels
Channel layout : L R C LFE Ls Rs
Sampling rate : 48.0 kHz
Frame rate : 31.250 FPS (1536 SPF)
Compression mode : Lossy
Stream size : 310 MiB (16%)
Title : MVO | Jaskier | RUS
Language : Russian
Service kind : Complete Main
Default : Yes
Forced : No
Audio #2
ID : 3
Format : AC-3
Format/Info : Audio Coding 3
Commercial name : Dolby Digital
Codec ID : A_AC3
Duration : 1 h 36 min
Bit rate mode : Constant
Bit rate : 448 kb/s
Channel(s) : 6 channels
Channel layout : L R C LFE Ls Rs
Sampling rate : 48.0 kHz
Frame rate : 31.250 FPS (1536 SPF)
Compression mode : Lossy
Stream size : 310 MiB (16%)
Title : Original | ENG
Language : English
Service kind : Complete Main
Default : Yes
Forced : No
Text #1
ID : 4
Format : UTF-8
Codec ID : S_TEXT/UTF8
Codec ID/Info : UTF-8 Plain Text
Duration : 1 h 28 min
Bit rate : 155 b/s
Count of elements : 1447
Stream size : 101 KiB (0%)
Title : Cool Story Blog
Language : Russian
Default : No
Forced : No
Text #2
ID : 5
Format : UTF-8
Codec ID : S_TEXT/UTF8
Codec ID/Info : UTF-8 Plain Text
Duration : 1 h 35 min
Bit rate : 95 b/s
Count of elements : 1688
Stream size : 67.0 KiB (0%)
Title : SDH
Language : English
Default : No
Forced : No
Text #3
ID : 6
Format : UTF-8
Codec ID : S_TEXT/UTF8
Codec ID/Info : UTF-8 Plain Text
Duration : 1 h 28 min
Bit rate : 90 b/s
Count of elements : 1490
Stream size : 59.2 KiB (0%)
Language : English
Default : No
Forced : No
Релиз от:
Автор релиза:



Скачать Чип и Дейл спешат на помощь через торрент http://i120.fastpic.org/big/2022/0525/ed/3e0be8430f591c68eac21008f221a2ed.jpg Скачать, смотреть онлайн Чип и Дейл спешат на помощь бесплантно в хорошем качестве Описание: «Чип и Дейл спешат на помощь» — известное шоу, в котором когда-то снимались бурундуки и их друзья. Прошло 30 лет. Чип стал ... 10 10 4
Торрент: Зарегистрирован [2022-05-25 19:30] · скачан: 329 раз
Статус: √ проверено
Размер: 1.88 GB
Как cкачать? Как скачать Чип и Дейл спешат на помощь через торрент | UTorrent

% Раздел Тема Автор DL S | L
Мультфильмы (48-60 fps) [ 3.3 GB ] Чип и Дейл спешат на помощь / Chip 'n Dale: Rescue Rangers | MVO | DLRip 720p / 60 FPS, MVO slaventi-69 Скачать
4 | 0
Иностранные мультфильмы [ 1.46 GB ] Чип и Дейл спешат на помощь / Chip 'n Dale: Rescue Rangers | Jaskier | DLRip bober100 Скачать
3 | 0
Зарубежные Мультфильмы (WEB-DL 720p, 1080p) [ 5.47 GB ] Чип и Дейл спешат на помощь / Chip 'n Dale: Rescue Rangers | Jaskier | 1080p bober100 Скачать
4 | 0
Зарубежные Мультфильмы (WEB-DL 720p, 1080p) [ 5.3 GB ] Чип и Дейл спешат на помощь / Chip 'n Dale: Rescue Rangers | | 1080p bober100 Скачать
4 | 0

28-11-2019 20:33  


Отключить вcю реклaмy на сайте, в т.ч. и в плеере онлайн просмотра!

25-05-2022 22:03 Чип и Дейл спешат на помощь Скачать торрент  

мульт прикольный, ну то что профессор нимнул их всех таки испортил, то конечно треш.



25-05-2022 22:04 Чип и Дейл спешат на помощь Скачать торрент  

16+ однозначно.



    Дорогой пользователь! Огромная просьба, поблагодарите релизера, оцените раздачу и оставьте свои комментарий, если Вы скачали Чип и Дейл спешат на помощь через торрент бесплатно!!
    Комментировать посты могут только пользователи прошедшие не сложную регистрацию
    Показать сообщения:    


    Чип и Дейл спешат на помощь через торрент
    Скачать бесплатно Чип и Дейл спешат на помощь
    Чип и Дейл спешат на помощь скачать торрент
    Чип и Дейл спешат на помощь смотреть онлайн
    Cкачать фильм Чип и Дейл спешат на помощь бесплатно
    Чип и Дейл спешат на помощь скачать торрент в хорошем качестве
    Чип и Дейл спешат на помощь смотреть онлайн бесплатно в хорошем качестве
    Вы не можете начинать темы
    Вы не можете отвечать на сообщения
    Вы не можете редактировать свои сообщения
    Вы не можете удалять свои сообщения
    Вы не можете голосовать в опросах
    Вы не можете прикреплять файлы к сообщениям
    Вы можете скачивать файлы
    Чип и Дейл спешат на помощь / Chip 'n Dale: Rescue Rangers [2022, Мультфильм, комедия, детектив, приключения, семейный, WEB-DLRip-AVC] MVO [Jaskier] от ExKinoRay смотреть онлайн, скачать торрент picoco.icu