Доктор Стрэндж

Лицензия

Добыча

Дубляж

Уэнсдэй

1 сезон

Тор

Дубляж

В эфире

Дубляж

Там, где раки поют

MVO

Властелин колец

1 сезон

Deluxe

pack

Рекомендуем

30

Пиратка

ВАЖНО

ВАЖНО

Ghostwire

Пиратка

jed

RePack

nioh2

RePack

RDR2

RePack

NEED FOR SPEED™ PAYBACK

RePack

скачать торрент

Кинопоиск HD

Острые козырьки 6 сезон

6 сезон

FAR CRY 6

RePack

скачать торрент

Лицензия

скачать торрент

MVO

1

1 сезон

скачать торрент

1 сезон

скачать торрент

Лицензия

  

Кролецып и Хомяк Тьмы / Chickenhare and the Hamster of Darkness (Hopper et le hamster des ténèbres) (Бен Стассен, Бенжамен Муске) [2022 г., Мультфильм, приключения, семейный, WEB-DLRip, Дубляж "iTunes"]

Кролецып и Хомяк Тьмы через торрент pb.wtf

Раздают: 2 [ 0 KB/s ]
Размер: 719 MB | Добавлен: 6 мес. назад | Торрент скачан:179 раз
Смотреть онлайн | Скачать   

26-05-2022 17:50 Кролецып и Хомяк Тьмы Скачать торрент  

Кролецып и Хомяк Тьмы / Chickenhare and the Hamster of Darkness (Hopper et le hamster des ténèbres)
Год выпуска: 2022
Страна: Бельгия, Франция / Dark Horse Comics, Octopolis, nWave Pictures
Жанр: Мультфильм, приключения, семейный
Продолжительность: 01:27:55
Перевод: Дубляж (iTunes)

Режиссер: Бен Стассен, Бенжамен Муске

rating

В ролях: Тома Соливерес, Хлоя Жуанне, Николя Мори, Фредерик Попович, Антуан Шумский, Ричард Ле Руссель, Антуан Фере, Лорен Жаке, Николя Бушу, Алан Обер

Описание: Харизматичный и отважный Кролецып больше всего на свете мечтает стать искателем приключений. Наполовину кролик, наполовину цыплёнок - он сочетает лучшие качества обоих животных. Когда его дому угрожает опасность, он отправляется в авантюрное путешествие по удивительным местам, чтобы найти древний артефакт - таинственного Хомяка Тьмы.

Качество: WEB-DLRip
Формат: AVI
Видео кодек: DivX
Аудио кодек: MP3
Видео: 640x272 (2.35:1), 25 fps, DivX Codec 4.x ~1005 kbps avg, 0.23 bit/pixel
Аудио: 48 kHz, MPEG Layer 3, 2 ch, ~128.00 kbps avg

Общее
Полное имя : G:\ФИЛЬМЫ\Кролецып и Хомяк Тьмы.2022.WEB-DLRip.avi
Формат : AVI
Формат/Информация : Audio Video Interleave
Размер файла : 719 Мбайт
Продолжительность : 1 ч. 27 м.
Общий поток : 1 143 Кбит/сек
Программа кодирования : VirtualDubMod 1.5.10.3 | www.virtualdub-fr.org || (build 2550/release)
Библиотека кодирования : VirtualDubMod build 2550/release

Видео
Идентификатор : 0
Формат : MPEG-4 Visual
Профиль формата : Advanced [email protected]
Настройки формата : BVOP2
Параметр BVOP формата : 2
Параметр QPel формата : Нет
Параметр GMC формата : Без точки перехода
Параметр матрицы формата : Default (MPEG)
Идентификатор кодека : DIVX
Идентификатор кодека/Информация : Project Mayo
Идентификатор кодека/Подсказка : DivX 4
Продолжительность : 1 ч. 27 м.
Битрейт : 1 005 Кбит/сек
Ширина : 640 пикселей
Высота : 272 пикселя
Соотношение сторон : 2,35:1
Частота кадров : 25,000 кадров/сек
Цветовое пространство : YUV
Субдискретизация насыщенности : 4:2:0
Битовая глубина : 8 бит
Тип развёртки : Прогрессивная
Метод сжатия : С потерями
Бит/(Пиксели*Кадры) : 0.231
Размер потока : 632 Мбайт (88%)
Библиотека кодирования : XviD 1.2.1 (UTC 2008-12-04)

Аудио
Идентификатор : 1
Формат : MPEG Audio
Версия формата : Version 1
Профиль формата : Layer 3
Настройки формата : Joint stereo
Идентификатор кодека : 55
Идентификатор кодека/Подсказка : MP3
Продолжительность : 1 ч. 27 м.
Вид битрейта : Постоянный
Битрейт : 128 Кбит/сек
Каналы : 2 канала
Частота : 48,0 КГц
Частота кадров : 41,667 кадра/сек (1152 SPF)
Метод сжатия : С потерями
Размер потока : 80,5 Мбайт (11%)
Выравнивание : Соединение по промежуткам
Продолжительность промежутка : 40 мс. (1,00 видеокадр)
Время предзагрузки промежутка : 504 мс.
Библиотека кодирования : LAME3.99r
Настройки программы : -m j -V 4 -q 2 -lowpass 17 -b 128

ReportBy : MediaInfoLib - v22.03
CreatedOn : UTC 2022-05-26 17:25:06




Скачать Кролецып и Хомяк Тьмы через торрент https://i120.fastpic.org/big/2022/0526/2f/87473cb3996cefd02faecae87b577a2f.jpg Скачать, смотреть онлайн Кролецып и Хомяк Тьмы бесплантно в хорошем качестве Описание: Харизматичный и отважный Кролецып больше всего на свете мечтает стать искателем приключений. Наполовину кролик, наполовину ... 10 10 2
Торрент: Зарегистрирован [2022-05-26 17:50] · скачан: 179 раз
Статус: √ проверено
Размер: 719 MB
Как cкачать? Как скачать Кролецып и Хомяк Тьмы через торрент | UTorrent

% Раздел Тема Автор DL S | L
3D Мультфильмы [ 5.99 GB ] Кролецып и Хомяк Тьмы в 3Д / Chickenhare and the Hamster of Darkness in 3D | Дубляж | 1080p, Дубляж slaventi-69 Скачать
2 | 0
3D Мультфильмы [ 7.36 GB ] Кролецып и Хомяк Тьмы в 3Д / Chickenhare and the Hamster of Darkness 3D | OverUnder / Вертикальная стереопара | 1080p serega768 Скачать
1 | 0
Мультфильмы (48-60 fps) [ 3.2 GB ] Кролецып и Хомяк Тьмы / Chickenhare and the Hamster of Darkness | iTunes | DLRip 720p / 60 FPS iTunes slaventi-69 Скачать
7 | 0

28-11-2019 20:33  


Отключить вcю реклaмy на сайте, в т.ч. и в плеере онлайн просмотра!

    Дорогой пользователь! Огромная просьба, поблагодарите релизера, оцените раздачу и оставьте свои комментарий, если Вы скачали Кролецып и Хомяк Тьмы через торрент бесплатно!!
    Комментировать посты могут только пользователи прошедшие не сложную регистрацию
    Показать сообщения:    


    Кролецып и Хомяк Тьмы через торрент
    Скачать бесплатно Кролецып и Хомяк Тьмы
    Кролецып и Хомяк Тьмы скачать торрент
    Кролецып и Хомяк Тьмы смотреть онлайн
    Cкачать фильм Кролецып и Хомяк Тьмы бесплатно
    Кролецып и Хомяк Тьмы скачать торрент в хорошем качестве
    Кролецып и Хомяк Тьмы смотреть онлайн бесплатно в хорошем качестве
    Вы не можете начинать темы
    Вы не можете отвечать на сообщения
    Вы не можете редактировать свои сообщения
    Вы не можете удалять свои сообщения
    Вы не можете голосовать в опросах
    Вы не можете прикреплять файлы к сообщениям
    Вы можете скачивать файлы
    Кролецып и Хомяк Тьмы / Chickenhare and the Hamster of Darkness [2022 г., Мультфильм, приключения, семейный, WEB-DLRip, Дубляж "iTunes"] смотреть онлайн, скачать торрент picoco.icu