Всегда рабочее зеркало без VPN и Proxy просто перед .vidak.icu напиши любое слово или цифру, Пример http://1f59.vidak.icu

Лицензия

MVO

1 сезон

1

1 сезон

iTunes

1 сезон

13

1 сезон

Deluxe

pack

Рекомендуем

Repack

30

ВАЖНО

RePack

MK11

RePack

jed

RePack

fifa19

RePack

RDR2

RePack

NEED FOR SPEED™ PAYBACK

Кинопоиск HD

6 сезон

 Острые козырьки 6 сезон

Все сериалы

все сериалы на PB.wtf

RePack

FAR CRY 5
  
Magnet ссылка

1941. Крылья над Берлином (Константин Буслов) [2022, Боевик, военный, исторический, WEB-DL 1080p] [КиноПоиск HD] pb.wtf

1941. Крылья над Берлином через торрент pb.wtf

Раздают: 8 [ 0 KB/s ]
Размер: 4.81 GB | Добавлен: 2 мес. 18 д. назад | Торрент скачан:623 раза
Смотреть онлайн 1941. Крылья над Берлином | Скачать    Ребята, помогите собрать деньги на оплату серверов!!!

30-05-2022 02:18 1941. Крылья над Берлином Скачать торрент  

1941. Крылья над Берлином
Год выпуска: 2022
Страна: Россия
Жанр: Боевик, военный, исторический
Продолжительность: 01:40:05
Перевод: Не требуется | КиноПоиск HD
Субтитры: отсутствуют

Режиссер: Константин Буслов

rating

В ролях: Сергей Пускепалис, Максим Битюков, Гела Месхи, Александр Метёлкин, Леонела Мантурова, Сергей Гилев, Евгений Антропов, Николай Козак, Владимир Тяптушкин, Степан Белозеров, Андрей Харенко, Алексей Овсянников, Евгений Сафронов, Егор Кирячок, Наталья Николаева

Описание: История о подвиге лётчиков 1-го минно-торпедного авиационного полка ВВС Балтийского флота во главе с полковником Преображенским. У них была сложнейшая боевая задача — нанести первые бомбовые удары по Берлину, столице фашистской Германии.

Качество: WEB-DL 1080p
Формат: MKV

Видео: MPEG-4 AVC, 6000 Kb/s, 1920x804, 24.000 fps
Аудио #01: 48 kHz, AC3, 5.1, 448 Kbps | RUS |
Аудио #02: 48 kHz, E-AC3, 5.1, 448 Kbps | RUS |
скриншот  скриншот  скриншот  скриншот  

Complete name : 1941.Kryilya.nad.Berlinom.2022.KP.WEB-DL.1080p.ELEKTRI4KA.UNIONGANG.mkv
Format : Matroska
Format version : Version 4
File size : 4.81 GiB
Duration : 1 h 40 min
Overall bit rate : 6 876 kb/s
Movie name : 1941.Kryilya.nad.Berlinom.2022.KP.WEB-DL.1080p.ELEKTRI4KA.UNIONGANG.
Encoded date : UTC 2022-05-29 22:30:55
Writing application : mkvmerge v63.0.0 ('Everything') 32-bit
Writing library : libebml v1.4.2 + libmatroska v1.6.4

Video
ID : 1
Format : AVC
Format/Info : Advanced Video Codec
Format profile : [email protected]
Format settings : CABAC / 5 Ref Frames
Format settings, CABAC : Yes
Format settings, Reference frames : 5 frames
Codec ID : V_MPEG4/ISO/AVC
Duration : 1 h 40 min
Bit rate : 6 000 kb/s
Width : 1 920 pixels
Height : 804 pixels
Display aspect ratio : 2.40:1
Frame rate mode : Constant
Frame rate : 24.000 FPS
Color space : YUV
Chroma subsampling : 4:2:0
Bit depth : 8 bits
Scan type : Progressive
Bits/(Pixel*Frame) : 0.162
Stream size : 4.18 GiB (87%)
Writing library : x264 core 157
Encoding settings : cabac=1 / ref=5 / deblock=1:0:0 / analyse=0x3:0x133 / me=umh / subme=10 / psy=1 / psy_rd=1.00:0.00 / mixed_ref=1 / me_range=24 / chroma_me=1 / trellis=2 / 8x8dct=1 / cqm=0 / deadzone=21,11 / fast_pskip=1 / chroma_qp_offset=-2 / threads=25 / lookahead_threads=4 / sliced_threads=0 / nr=0 / decimate=1 / interlaced=0 / bluray_compat=0 / stitchable=1 / constrained_intra=0 / bframes=8 / b_pyramid=2 / b_adapt=2 / b_bias=0 / direct=3 / weightb=1 / open_gop=0 / weightp=2 / keyint=250 / keyint_min=24 / scenecut=40 / intra_refresh=0 / rc_lookahead=60 / rc=2pass / mbtree=1 / bitrate=6000 / ratetol=1.0 / qcomp=0.60 / qpmin=0 / qpmax=69 / qpstep=4 / cplxblur=20.0 / qblur=0.5 / vbv_maxrate=6600 / vbv_bufsize=24000 / nal_hrd=none / filler=0 / ip_ratio=1.40 / aq=1:1.00
Default : Yes
Forced : No

Audio #1
ID : 2
Format : AC-3
Format/Info : Audio Coding 3
Commercial name : Dolby Digital
Codec ID : A_AC3
Duration : 1 h 40 min
Bit rate mode : Constant
Bit rate : 448 kb/s
Channel(s) : 6 channels
Channel layout : L R C LFE Ls Rs
Sampling rate : 48.0 kHz
Frame rate : 31.250 FPS (1536 SPF)
Compression mode : Lossy
Stream size : 321 MiB (7%)
Title : Original AC3 (KP HD)
Language : Russian
Service kind : Complete Main
Default : Yes
Forced : Yes

Audio #2
ID : 3
Format : E-AC-3
Format/Info : Enhanced AC-3
Commercial name : Dolby Digital Plus
Codec ID : A_EAC3
Duration : 1 h 40 min
Bit rate mode : Constant
Bit rate : 448 kb/s
Channel(s) : 6 channels
Channel layout : L R C LFE Ls Rs
Sampling rate : 48.0 kHz
Frame rate : 31.250 FPS (1536 SPF)
Compression mode : Lossy
Stream size : 321 MiB (7%)
Title : Original EAC3 (KP HD)
Language : Russian
Service kind : Complete Main
Default : No
Forced : No

pb.wtf



Скачать 1941. Крылья над Берлином через торрент https://i120.fastpic.org/big/2022/0529/51/75c93d4448decc49bec41d1239e33751.jpg Скачать, смотреть онлайн 1941. Крылья над Берлином бесплантно в хорошем качестве Описание: История о подвиге лётчиков 1-го минно-торпедного авиационного полка ВВС Балтийского флота во главе с полковником Преображенским. ... 8.7 10 29
Info! Золотая раздача, скачанное не засчитывается.
Торрент: Зарегистрирован [2022-05-30 02:18] · скачан: 623 раз
Статус: √ проверено
Размер: 4.81 GB
Как cкачать? Как скачать 1941. Крылья над Берлином через торрент | UTorrent

% Раздел Тема Автор DL S | L
Наши новые фильмы 2020 - 2022 [ 1.63 GB ] 1941. Крылья над Берлином [2022 военный исторический WEB-DLRip-AVC] RUS [КиноПоиск HD] от ExKinoRay Lithuania Скачать
6 | 0
Наши новые фильмы 2020 - 2022 [ 747 MB ] 1941. Крылья над Берлином [2022 военный исторический WEB-DLRip] [КиноПоиск HD] bober100 Скачать
1 | 0
Наши новые фильмы 2020 - 2022 [ 2.16 GB ] 1941. Крылья над Берлином [2022 военный исторический WEB-DLRip-AVC] [КиноПоиск HD] bober100 Скачать
1 | 0
Наши новые фильмы 2020 - 2022 [ 1.46 GB ] 1941. Крылья над Берлином [2022 военный исторический WEB-DLRip] [КиноПоиск HD] bober100 Скачать
3 | 0

28-11-2019 20:33  

Отключить вcю реклaмy на сайте

30-05-2022 06:04 1941. Крылья над Берлином Скачать торрент  

ну что, обсиральщики, ваш выход!) как фильм?pb.wtf



30-05-2022 07:27 1941. Крылья над Берлином Скачать торрент  

tamburetko писал(а):

ну что, обсиральщики, ваш выход!) как фильм?

Смысл обсирать? Ничего не меняется, всё как обычно.pb.wtf



30-05-2022 10:08 1941. Крылья над Берлином Скачать торрент  

tamburetko писал(а):

ну что, обсиральщики, ваш выход!) как фильм?

У вас глупое восприятие. Люди не обсерают, а критикуют. И критикуют по делу.pb.wtf



30-05-2022 10:26 1941. Крылья над Берлином Скачать торрент  

tamburetko писал(а):

ну что, обсиральщики, ваш выход!) как фильм?

Ты один со своим высером и обосрался!pb.wtf



30-05-2022 11:13 1941. Крылья над Берлином Скачать торрент  

Господа, спор спором, а что по делу? Как фильм?pb.wtf



30-05-2022 14:56 1941. Крылья над Берлином Скачать торрент  

Snouman писал(а):

Господа, спор спором, а что по делу? Как фильм?

Подруга немка смотрела,сказала что ей понравился,а сам я ещё не посмотрел)pb.wtf



30-05-2022 15:18 1941. Крылья над Берлином Скачать торрент  

tamburetko писал(а):

ну что, обсиральщики, ваш выход!) как фильм?

Три ошибки в коменте,как фильм?.(НЕУЧ)...pb.wtf



30-05-2022 18:50 1941. Крылья над Берлином Скачать торрент  

Посмотрел. Нормальный фильм.
Заклёпки на месте, много, овердохрена.
Антисоветчины не замечено. Кратко = производственный роман. За свой бюджет очень даже хорошо. Одобрям. Не шедевр, конечно, но на один раз посмотреть очень даже. Лично я получил удовольствие от просмотра и о потерянном времени ни капельки не сожалею.pb.wtf



30-05-2022 21:23 1941. Крылья над Берлином Скачать торрент  

tirion stark писал(а):

tamburetko писал(а):

ну что, обсиральщики, ваш выход!) как фильм?

У вас глупое восприятие. Люди не обсерают, а критикуют. И критикуют по делу.

у вас отсутствует чувство юмора плюс вы в глаза долбитесь. люди иногда шутят, а иногда даже улыбаются. и еще изредка могут писать жи-ши через ё, просто потому что на болту они вертели моралофагов и орфАгрОфических импотентов))pb.wtf



30-05-2022 21:33 1941. Крылья над Берлином Скачать торрент  

NICHIPORCHUK писал(а):

tamburetko писал(а):

ну что, обсиральщики, ваш выход!) как фильм?

Три ошибки в коменте,как фильм?.(НЕУЧ)...

сорян, тетенька-училка, в след. раз подготовлюсь полуДше)) родителям тока не говорите
зы. да, мне делать нефиг, я в отпуске с марьванной. могу стебаться пока не забанят)pb.wtf



23-06-2022 09:16 1941. Крылья над Берлином Скачать торрент  

Snouman писал(а):

Господа, спор спором, а что по делу? Как фильм?

да просто они сами себя обсирают , а фильм им нафиг нуженpb.wtf



    Дорогой пользователь! Огромная просьба, поблагодарите релизера, оцените раздачу и оставьте свои комментарий, если Вы скачали 1941. Крылья над Берлином через торрент бесплатно!
    Комментировать посты могут только пользователи прошедшие не сложную регистрацию
    Показать сообщения:    

    1941. Крылья над Берлином через торрент
    Скачать бесплатно 1941. Крылья над Берлином
    1941. Крылья над Берлином скачать торрент
    1941. Крылья над Берлином смотреть онлайн
    Cкачать фильм 1941. Крылья над Берлином бесплатно
    1941. Крылья над Берлином скачать торрент в хорошем качестве
    1941. Крылья над Берлином смотреть онлайн бесплатно в хорошем качестве


    Вы не можете начинать темы
    Вы не можете отвечать на сообщения
    Вы не можете редактировать свои сообщения
    Вы не можете удалять свои сообщения
    Вы не можете голосовать в опросах
    Вы не можете прикреплять файлы к сообщениям
    Вы можете скачивать файлы