Всегда рабочее зеркало без VPN и Proxy просто перед .vidak.icu напиши любое слово или цифру, Пример http://avtt.vidak.icu

Лицензия

MVO

1 сезон

1

1 сезон

iTunes

1 сезон

13

1 сезон

Deluxe

pack

Рекомендуем

Repack

30

ВАЖНО

RePack

MK11

RePack

jed

RePack

fifa19

RePack

RDR2

RePack

NEED FOR SPEED™ PAYBACK

Кинопоиск HD

6 сезон

 Острые козырьки 6 сезон

Все сериалы

все сериалы на PB.wtf

RePack

FAR CRY 5
  
Magnet ссылка

Пламенное сердце / Vaillante / Fireheart (Теодор Ти, Лоран Зэйтун) [2022, Мультфильм, комедия, приключения, семейный, BD Remux 1080p] DUB [IYUNO SDI Group] pb.wtf

Пламенное сердце через торрент pb.wtf

Раздают: 3 [ 0 KB/s ]
Размер: 25.62 GB | Добавлен: 2 мес. 18 д. назад | Торрент скачан:44 раза
Смотреть онлайн Пламенное сердце | Скачать    Ребята, помогите собрать деньги на оплату серверов!!!

30-05-2022 16:33 Пламенное сердце Скачать торрент  

Пламенное сердце
Vaillante | Fireheart

Год выпуска: 2022
Страна: Франция, Канада
Студия: Entertainment One, L'Atelier Animation, Anton Capital Entertainment, Main Journey, Caramel Film
Жанр: Мультфильм, комедия, приключения, семейный
Продолжительность: 01:32:17
Перевод: Дублированный | IYUNO SDI Group
Субтитры: Aнглийские

Режиссер: Теодор Ти, Лоран Зэйтун

rating

В ролях: Оливия Кук, Кеннет Брана, Лори Холден, Уильям Шетнер, Мара Жюно, Уайлекс Ли, Райан В. Гарсиа, Алис Поль, Венсан Кассель, Валери Лемерсье, Клаудия Тагбо, Эли Семун, Эммануэль Кюртиль, Эммануэль Гариджо, Александр Н’Гуэн

Описание: С самого детства у Джорджии Нолан была только одна мечта: стать пожарным, как ее папа! К сожалению, законы того времени не оставляли шанса этой мечте осуществиться. Но когда в городе стали один за другим пропадать пожарные, а таинственные пожары — сжигать дотла городские театры, Джорджиа поняла: вот она, ее возможность! Переодевшись в «Джо», неуклюжего парня с усиками, она присоединяется к команде пожарных-добровольцев, которым поручено остановить загадочного поджигателя. Джорджии придется здорово постараться, чтобы ее не раскрыли, особенно учитывая, что возглавляет рискованное расследование ее отец.

Качество: BD Remux 1080p
Формат: MKV

Видео: MPEG-4 AVC, 1920x1080, 36.8 Mbit/s, 24.000 fps
Аудио #01: 48 kHz, AC3, 5.1, 448 Kbps | Дублированный | IYUNO SDI Group | RUS |
Аудио #02: 48 kHz, DTS-HD MA, 5.1, 2449 Kbps | Оригинал | FRE |
скриншот  скриншот  скриншот  скриншот  скриншот  скриншот  

General
Unique ID : 291302041623886372387648723743130086033 (0xDB26BB83F869E4E362B01210454D6A91)
Complete name : E:Video1Vaillante.2022.BDREMUX.1080p.seleZen.mkv
Format : Matroska
Format version : Version 4
File size : 25.6 GiB
Duration : 1 h 32 min
Overall bit rate mode : Variable
Overall bit rate : 39.7 Mb/s
Movie name : Fireheart 2022 from seleZen
Encoded date : UTC 2022-05-30 10:42:18
Writing application : mkvmerge v59.0.0 ('Shining Star') 64-bit
Writing library : libebml v1.4.2 + libmatroska v1.6.4

Video
ID : 1
Format : AVC
Format/Info : Advanced Video Codec
Format profile : [email protected]
Format settings : CABAC / 2 Ref Frames
Format settings, CABAC : Yes
Format settings, Reference : 2 frames
Codec ID : V_MPEG4/ISO/AVC
Duration : 1 h 32 min
Bit rate mode : Variable
Bit rate : 36.8 Mb/s
Width : 1 920 pixels
Height : 1 080 pixels
Display aspect ratio : 16:9
Frame rate mode : Constant
Frame rate : 24.000 FPS
Color space : YUV
Chroma subsampling : 4:2:0
Bit depth : 8 bits
Scan type : Progressive
Bits/(Pixel*Frame) : 0.740
Stream size : 23.7 GiB (93%)
Language : English
Default : Yes
Forced : No

Audio #1
ID : 2
Format : AC-3
Format/Info : Audio Coding 3
Commercial name : Dolby Digital
Codec ID : A_AC3
Duration : 1 h 32 min
Bit rate mode : Constant
Bit rate : 448 kb/s
Channel(s) : 6 channels
Channel layout : L R C LFE Ls Rs
Sampling rate : 48.0 kHz
Frame rate : 31.250 FPS (1536 SPF)
Compression mode : Lossy
Stream size : 296 MiB (1%)
Title : Dub
Language : Russian
Service kind : Complete Main
Default : Yes
Forced : Yes

Audio #2
ID : 3
Format : DTS XLL
Format/Info : Digital Theater Systems
Commercial name : DTS-HD Master Audio
Codec ID : A_DTS
Duration : 1 h 32 min
Bit rate mode : Variable
Bit rate : 2 449 kb/s
Channel(s) : 6 channels
Channel layout : C L R Ls Rs LFE
Sampling rate : 48.0 kHz
Frame rate : 93.750 FPS (512 SPF)
Bit depth : 16 bits
Compression mode : Lossless
Stream size : 1.58 GiB (6%)
Title : Original
Language : French
Default : No
Forced : No

Text #1
ID : 4
Format : UTF-8
Codec ID : S_TEXT/UTF8
Codec ID/Info : UTF-8 Plain Text
Duration : 1 h 26 min
Bit rate : 70 b/s
Count of elements : 1492
Stream size : 44.8 KiB (0%)
Title : Full
Language : English
Default : No
Forced : No

Text #2
ID : 5
Format : UTF-8
Codec ID : S_TEXT/UTF8
Codec ID/Info : UTF-8 Plain Text
Duration : 1 h 28 min
Bit rate : 80 b/s
Count of elements : 1782
Stream size : 51.6 KiB (0%)
Title : SDH
Language : English
Default : No
Forced : No

Menu
00:00:00.000 : fr:Chapter 01
00:07:17.791 : fr:Chapter 02
00:15:19.166 : fr:Chapter 03
00:22:57.041 : fr:Chapter 04
00:29:16.541 : fr:Chapter 05
00:36:29.500 : fr:Chapter 06
00:42:55.333 : fr:Chapter 07
00:51:36.500 : fr:Chapter 08
00:58:35.041 : fr:Chapter 09
01:05:06.750 : fr:Chapter 10
01:13:05.833 : fr:Chapter 11
01:19:56.333 : fr:Chapter 12

pb.wtf



Скачать Пламенное сердце через торрент https://i4.imageban.ru/out/2022/05/30/b552ae9af7a6abdb28325bf4b76e5c4b.png Скачать, смотреть онлайн Пламенное сердце бесплантно в хорошем качестве Описание: С самого детства у Джорджии Нолан была только одна мечта: стать пожарным, как ее папа! К сожалению, законы того времени не ... 10 10 2
Торрент: Зарегистрирован [2022-05-30 16:33] · скачан: 44 раз
Статус: √ проверено
Размер: 25.62 GB
Как cкачать? Как скачать Пламенное сердце через торрент | UTorrent

% Раздел Тема Автор DL S | L
Мультфильмы (48-60 fps) [ 2.93 GB ] Пламенное сердце / Vaillante / Fireheart [2022 Мультфильм BDRip 720p / 60 FPS ] от R.G. HD-Films slaventi-69 Скачать
10 | 0
Зарубежные Мультфильмы (BDRip 1080p, 720p, Blu-ray, BD-Remux) [ 8.63 GB ] Пламенное сердце / Vaillante / Fireheart [2022 Мультфильм BDRip 1080p] DUB [IYUNO SDI Group] bober100 Скачать
10 | 0

28-11-2019 20:33  

Отключить вcю реклaмy на сайте

30-05-2022 21:07 Пламенное сердце Скачать торрент  

когда в городе начинают один за другим пропадать пожарные и дотла горят городские театры, надо включать голову и понять - в городе объявились скакуны-салоеды)) ну их можно понять, они просто преобразуют новую среду обитания к своим привычным условиям. ну привыкли люди за восемь лет все разрушать, че уж теперь ссаными тапками гнать их что-ли?pb.wtf



    Дорогой пользователь! Огромная просьба, поблагодарите релизера, оцените раздачу и оставьте свои комментарий, если Вы скачали Пламенное сердце через торрент бесплатно!
    Комментировать посты могут только пользователи прошедшие не сложную регистрацию
    Показать сообщения:    

    Пламенное сердце через торрент
    Скачать бесплатно Пламенное сердце
    Пламенное сердце скачать торрент
    Пламенное сердце смотреть онлайн
    Cкачать фильм Пламенное сердце бесплатно
    Пламенное сердце скачать торрент в хорошем качестве
    Пламенное сердце смотреть онлайн бесплатно в хорошем качестве


    Вы не можете начинать темы
    Вы не можете отвечать на сообщения
    Вы не можете редактировать свои сообщения
    Вы не можете удалять свои сообщения
    Вы не можете голосовать в опросах
    Вы не можете прикреплять файлы к сообщениям
    Вы можете скачивать файлы