Всегда рабочее зеркало без VPN и Proxy просто перед .vidak.icu напиши любое слово или цифру, Пример http://s483.vidak.icu

Лицензия

MVO

1 сезон

1

1 сезон

iTunes

1 сезон

13

1 сезон

Deluxe

pack

Рекомендуем

Repack

30

ВАЖНО

RePack

MK11

RePack

jed

RePack

fifa19

RePack

RDR2

RePack

NEED FOR SPEED™ PAYBACK

Кинопоиск HD

6 сезон

 Острые козырьки 6 сезон

Все сериалы

все сериалы на PB.wtf

RePack

FAR CRY 5
  
Magnet ссылка

Где Анна Франк / Where Is Anne Frank (Ари Фольман) [2022, мультфильм, драма, семейный, история, WEBRip 1080p] Dub (Позитив | iTunes) pb.wtf

Где Анна Франк через торрент pb.wtf

Размер: 4.72 GB | Добавлен: 2 мес. 13 д. назад | Торрент скачан:42 раза
Смотреть онлайн Где Анна Франк | Скачать    Ребята, помогите собрать деньги на оплату серверов!!!

05-06-2022 07:44 Где Анна Франк Скачать торрент  

Где Анна Франк / Where Is Anne Frank
Год выпуска: 2022
Страна: Бельгия, Люксембург, Франция, Нидерланды, Израиль
Жанр: мультфильм, драма, семейный, история
Продолжительность: 01:35:44
Перевод: Профессиональный (дублированный) Позитив | iTunes
Субтитры: нет

Режиссер: Ари Фольман

В ролях: Эмили Кэри, Руби Стоукс, Себастьян Крофт, Майкл Мэлоуни, Скай Беннетт, Ари Фольман, Нелл Барлоу, Ральф Проссер
Описание: В знаменитом музее Анны Франк, где хранится дневник 13-летней школьницы, сумевшей подробно изложить историю своих переживаний в годы Второй мировой войны, происходит невероятное событие. Китти, воображаемая подруга, с которой Анна делилась своими записями, внезапно сходит со страниц дневника. Ей ничего не известно о судьбе Анны, и потому, захватив оригинальную рукопись, девочка отправляется на её поиски. Хотя незримое присутствие Анны Франк в современном Амстердаме ощущается повсеместно, найти реальную Анну Франк совсем непросто.
rating

Качество: WEBRip 1080p
Формат: MKV
Видео: MPEG-4 AVC, 6667 Кбит/с, 1916x1016
Аудио: AC3, 48 kHz, 6 ch, 384 kbps avg | iTunes
скриншот  скриншот  скриншот  
General
Unique ID : 243986196546454619688830933827655401467 (0xB78E083DE7B3BCDB4C91F98C6CE17FFB)
Complete name : [KORSARS]_Where.Is.Anne.Frank.2022.WEBRip.1080p.mkv
Format : Matroska
Format version : Version 4
File size : 4.72 GiB
Duration : 1 h 35 min
Overall bit rate : 7 053 kb/s
Movie name : [KORSARS]_Where.Is.Anne.Frank.2022.WEBRip.1080p
Encoded date : UTC 2022-06-02 08:31:08
Writing application : mkvmerge v68.0.0 ('The Curtain') 64-bit
Writing library : libebml v1.4.2 + libmatroska v1.6.4

Video
ID : 1
Format : AVC
Format/Info : Advanced Video Codec
Format profile : [email protected]
Format settings : CABAC / 4 Ref Frames
Format settings, CABAC : Yes
Format settings, Reference : 4 frames
Codec ID : V_MPEG4/ISO/AVC
Duration : 1 h 35 min
Bit rate : 6 667 kb/s
Width : 1 916 pixels
Height : 1 016 pixels
Display aspect ratio : 1.886
Frame rate mode : Constant
Frame rate : 25.000 FPS
Color space : YUV
Chroma subsampling : 4:2:0
Bit depth : 8 bits
Scan type : Progressive
Bits/(Pixel*Frame) : 0.137
Stream size : 4.46 GiB (95%)
Title : Where.Is.Anne.Frank.2021.1080p.WEBRip.DD5.1.x264-NOGRP
Default : Yes
Forced : No
Color range : Limited
Color primaries : BT.709
Transfer characteristics : BT.709
Matrix coefficients : BT.709

Audio
ID : 2
Format : AC-3
Format/Info : Audio Coding 3
Commercial name : Dolby Digital
Codec ID : A_AC3
Duration : 1 h 35 min
Bit rate mode : Constant
Bit rate : 384 kb/s
Channel(s) : 6 channels
Channel layout : L R C LFE Ls Rs
Sampling rate : 48.0 kHz
Frame rate : 31.250 FPS (1536 SPF)
Compression mode : Lossy
Stream size : 263 MiB (5%)
Title : Where.Is.Anne.Frank.2022.D.WEB-DLRip.MegaPeer
Language : Icelandic
Service kind : Complete Main
Default : Yes
Forced : Yes
pb.wtf



Скачать Где Анна Франк через торрент https://i120.fastpic.org/big/2022/0603/fc/b39eec87b26a07c4022ab972eee9d7fc.jpg Скачать, смотреть онлайн Где Анна Франк бесплантно в хорошем качестве Описание: В знаменитом музее Анны Франк, где хранится дневник 13-летней школьницы, сумевшей подробно изложить историю своих переживаний в ... 10 10 4
Торрент: Зарегистрирован [2022-06-05 07:44] · скачан: 42 раз
Статус: √ проверено
Размер: 4.72 GB
Как cкачать? Как скачать Где Анна Франк через торрент | UTorrent

% Раздел Тема Автор DL S | L
Иностранные мультфильмы [ 1.46 GB ] Где Анна Франк / Where Is Anne Frank [2022 мультфильм история WEB-DLRip] Dub killermax2013 Скачать
3 | 0

28-11-2019 20:33  

Отключить вcю реклaмy на сайте

    Дорогой пользователь! Огромная просьба, поблагодарите релизера, оцените раздачу и оставьте свои комментарий, если Вы скачали Где Анна Франк через торрент бесплатно!
    Комментировать посты могут только пользователи прошедшие не сложную регистрацию
    Показать сообщения:    

    Где Анна Франк через торрент
    Скачать бесплатно Где Анна Франк
    Где Анна Франк скачать торрент
    Где Анна Франк смотреть онлайн
    Cкачать фильм Где Анна Франк бесплатно
    Где Анна Франк скачать торрент в хорошем качестве
    Где Анна Франк смотреть онлайн бесплатно в хорошем качестве


    Вы не можете начинать темы
    Вы не можете отвечать на сообщения
    Вы не можете редактировать свои сообщения
    Вы не можете удалять свои сообщения
    Вы не можете голосовать в опросах
    Вы не можете прикреплять файлы к сообщениям
    Вы можете скачивать файлы