Всегда рабочее зеркало без VPN и Proxy просто перед .vidak.icu напиши любое слово или цифру, Пример http://7ej4.vidak.icu

MVO

MVO

1 сезон

1

1 сезон

iTunes

1 сезон

13

1 сезон

Deluxe

pack

Рекомендуем

Repack

30

ВАЖНО

RePack

MK11

RePack

jed

RePack

fifa19

RePack

RDR2

RePack

NEED FOR SPEED™ PAYBACK

Кинопоиск HD

6 сезон

 Острые козырьки 6 сезон

Все сериалы

все сериалы на PB.wtf

RePack

FAR CRY 5
  
Magnet ссылка

Анчартед: На картах не значится / Uncharted (Рубен Фляйшер) [2022, Боевик, приключения, BDRip 720p] DUB [Невафильм] +3xMVO (rus, ukr) pb.wtf

Анчартед: На картах не значится через торрент pb.wtf

Раздают: 2 [ 0 KB/s ]
Размер: 5.65 GB | Добавлен: 2 мес. 7 д. назад | Торрент скачан:188 раз
Смотреть онлайн Анчартед: На картах не значится | Скачать    Ребята, помогите собрать деньги на оплату серверов!!!

24-04-2022 05:50 Анчартед: На картах не значится Скачать торрент  

Анчартед: На картах не значится
Uncharted

Год выпуска: 2022
Страна: США
Выпущено: Columbia Pictures, Atlas Entertainment, Arad Productions
Жанр: Боевик, приключения
Продолжительность: 01:55:50
Перевод(ы):
#1: Дублированный | Невафильм
#2: Профессиональный многоголосый | HDRezka Studio
#3: Профессиональный многоголосый | Jaskier
#4: Профессиональный многоголосый | TVShows
Субтитры: Русские (2 x Forced, full), украинские (Forced, full), английские

Режиссер: Рубен Фляйшер

rating

В ролях: Том Холланд (II), Марк Уолберг, Антонио Бандерас, София Тейлор Али, Тати Габриэль, Патриша Миден, Сара Жаклин Петрик

Описание: Фильм расскажет предысторию героя игр Uncharted Нэйтана Дрейка, которому суждено стать искателем приключений и охотником за древностями вместе со своим другом и наставником Салли.

Качество: BDRip 720p
Формат: MKV

Видео: MPEG-4 AVC, 1280x536, 4100 Kbit/s, 23.976 fps
Аудио #01: 48 kHz, AC3, 5.1, 384 Kbps | Дублированный | RUS |
Аудио #02: 48 kHz, AC3, 5.1, 640 Kbps | Профессиональный многоголосый | HDRezka Studio | RUS |
Аудио #03: 48 kHz, AC3, 5.1, 640 Kbps | Профессиональный многоголосый | Jaskier | RUS |
Аудио #04: 48 kHz, AC3, 2.0, 192 Kbps | Профессиональный многоголосый | TVShows | RUS |
Аудио #05: 48 kHz, AC3, 5.1, 384 Kbps | Дублированный | UKR |
Аудио #06: 48 kHz, AC3, 5.1, 640 Kbps | Оригинал | ENG |
скриншот  скриншот  скриншот  скриншот  

General
Unique ID : 211371201868055063282613454978303515385 (0x9F049CDA4AE7746DC0691FD01801DAF9)
Complete name : E:Video1Uncharted.2022.BDRip.720p.seleZen.mkv
Format : Matroska
Format version : Version 4
File size : 5.65 GiB
Duration : 1 h 56 min
Overall bit rate : 6 970 kb/s
Movie name : Uncharted 2022 from seleZen
Encoded date : UTC 2022-06-02 13:50:16
Writing application : mkvmerge v59.0.0 ('Shining Star') 64-bit
Writing library : libebml v1.4.2 + libmatroska v1.6.4

Video
ID : 1
Format : AVC
Format/Info : Advanced Video Codec
Format profile : [email protected]
Format settings : CABAC / 12 Ref Frames
Format settings, CABAC : Yes
Format settings, Reference : 12 frames
Codec ID : V_MPEG4/ISO/AVC
Duration : 1 h 55 min
Bit rate : 4 100 kb/s
Width : 1 280 pixels
Height : 536 pixels
Display aspect ratio : 2.40:1
Frame rate mode : Constant
Frame rate : 23.976 (24000/1001) FPS
Color space : YUV
Chroma subsampling : 4:2:0
Bit depth : 8 bits
Scan type : Progressive
Bits/(Pixel*Frame) : 0.249
Stream size : 3.32 GiB (59%)
Writing library : x264 core 146 -from seleZen
Encoding settings : cabac=1 / ref=12 / deblock=1:-2:-2 / analyse=0x3:0x133 / me=umh / subme=11 / psy=1 / psy_rd=1.07:0.03 / mixed_ref=1 / me_range=32 / chroma_me=1 / trellis=2 / 8x8dct=1 / cqm=0 / deadzone=21,11 / fast_pskip=0 / chroma_qp_offset=-3 / threads=48 / lookahead_threads=4 / sliced_threads=0 / nr=0 / decimate=0 / interlaced=0 / bluray_compat=0 / constrained_intra=0 / bframes=9 / b_pyramid=2 / b_adapt=2 / b_bias=0 / direct=3 / weightb=1 / open_gop=0 / weightp=2 / keyint=240 / keyint_min=23 / scenecut=40 / intra_refresh=0 / rc_lookahead=50 / rc=2pass / mbtree=0 / bitrate=4100 / ratetol=1.0 / qcomp=0.60 / qpmin=0 / qpmax=51 / qpstep=4 / cplxblur=20.0 / qblur=0.5 / vbv_maxrate=50000 / vbv_bufsize=62500 / nal_hrd=none / filler=0 / ip_ratio=1.40 / pb_ratio=1.30 / aq=3:0.80
Language : English
Default : Yes
Forced : No

Audio #1
ID : 2
Format : AC-3
Format/Info : Audio Coding 3
Commercial name : Dolby Digital
Codec ID : A_AC3
Duration : 1 h 55 min
Bit rate mode : Constant
Bit rate : 384 kb/s
Channel(s) : 6 channels
Channel layout : L R C LFE Ls Rs
Sampling rate : 48.0 kHz
Frame rate : 31.250 FPS (1536 SPF)
Compression mode : Lossy
Stream size : 318 MiB (6%)
Title : Dub
Language : Russian
Service kind : Complete Main
Default : Yes
Forced : Yes

Audio #2
ID : 3
Format : AC-3
Format/Info : Audio Coding 3
Commercial name : Dolby Digital
Codec ID : A_AC3
Duration : 1 h 55 min
Bit rate mode : Constant
Bit rate : 640 kb/s
Channel(s) : 6 channels
Channel layout : L R C LFE Ls Rs
Sampling rate : 48.0 kHz
Frame rate : 31.250 FPS (1536 SPF)
Compression mode : Lossy
Stream size : 530 MiB (9%)
Title : MVO [HDRezka Studio]
Language : Russian
Service kind : Complete Main
Default : No
Forced : No

Audio #3
ID : 4
Format : AC-3
Format/Info : Audio Coding 3
Commercial name : Dolby Digital
Codec ID : A_AC3
Duration : 1 h 55 min
Bit rate mode : Constant
Bit rate : 640 kb/s
Channel(s) : 6 channels
Channel layout : L R C LFE Ls Rs
Sampling rate : 48.0 kHz
Frame rate : 31.250 FPS (1536 SPF)
Compression mode : Lossy
Stream size : 530 MiB (9%)
Title : MVO [Jaskier]
Language : Russian
Service kind : Complete Main
Default : No
Forced : No

Audio #4
ID : 5
Format : AC-3
Format/Info : Audio Coding 3
Commercial name : Dolby Digital
Codec ID : A_AC3
Duration : 1 h 56 min
Bit rate mode : Constant
Bit rate : 192 kb/s
Channel(s) : 2 channels
Channel layout : L R
Sampling rate : 48.0 kHz
Frame rate : 31.250 FPS (1536 SPF)
Compression mode : Lossy
Stream size : 159 MiB (3%)
Title : MVO [TVShows]
Language : Russian
Service kind : Complete Main
Default : No
Forced : No

Audio #5
ID : 6
Format : AC-3
Format/Info : Audio Coding 3
Commercial name : Dolby Digital
Codec ID : A_AC3
Duration : 1 h 55 min
Bit rate mode : Constant
Bit rate : 384 kb/s
Channel(s) : 6 channels
Channel layout : L R C LFE Ls Rs
Sampling rate : 48.0 kHz
Frame rate : 31.250 FPS (1536 SPF)
Compression mode : Lossy
Stream size : 318 MiB (5%)
Title : Dub
Language : Ukrainian
Service kind : Complete Main
Default : No
Forced : No

Audio #6
ID : 7
Format : AC-3
Format/Info : Audio Coding 3
Commercial name : Dolby Digital
Codec ID : A_AC3
Duration : 1 h 55 min
Bit rate mode : Constant
Bit rate : 640 kb/s
Channel(s) : 6 channels
Channel layout : L R C LFE Ls Rs
Sampling rate : 48.0 kHz
Frame rate : 31.250 FPS (1536 SPF)
Compression mode : Lossy
Stream size : 530 MiB (9%)
Title : Original
Language : English
Service kind : Complete Main
Default : No
Forced : No

Text #1
ID : 8
Format : UTF-8
Codec ID : S_TEXT/UTF8
Codec ID/Info : UTF-8 Plain Text
Duration : 1 h 41 min
Bit rate : 2 b/s
Count of elements : 53
Stream size : 2.11 KiB (0%)
Title : Forced
Language : Russian
Default : Yes
Forced : Yes

Text #2
ID : 9
Format : UTF-8
Codec ID : S_TEXT/UTF8
Codec ID/Info : UTF-8 Plain Text
Duration : 1 h 24 min
Bit rate : 2 b/s
Count of elements : 35
Stream size : 1.48 KiB (0%)
Title : Forced [HDRezka Studio]
Language : Ukrainian
Default : No
Forced : No

Text #3
ID : 10
Format : UTF-8
Codec ID : S_TEXT/UTF8
Codec ID/Info : UTF-8 Plain Text
Duration : 1 h 47 min
Bit rate : 83 b/s
Count of elements : 1343
Stream size : 65.5 KiB (0%)
Title : Full [Meninsub]
Language : Russian
Default : No
Forced : No

Text #4
ID : 11
Format : UTF-8
Codec ID : S_TEXT/UTF8
Codec ID/Info : UTF-8 Plain Text
Duration : 1 h 42 min
Bit rate : 2 b/s
Count of elements : 52
Stream size : 2.12 KiB (0%)
Title : Forced
Language : Ukrainian
Default : No
Forced : No

Text #5
ID : 12
Format : UTF-8
Codec ID : S_TEXT/UTF8
Codec ID/Info : UTF-8 Plain Text
Duration : 1 h 53 min
Bit rate : 75 b/s
Count of elements : 1355
Stream size : 62.9 KiB (0%)
Title : Full
Language : Ukrainian
Default : No
Forced : No

Text #6
ID : 13
Format : UTF-8
Codec ID : S_TEXT/UTF8
Codec ID/Info : UTF-8 Plain Text
Duration : 4 min 20 s
Bit rate : 18 b/s
Count of elements : 24
Stream size : 593 Bytes (0%)
Title : Forced
Language : English
Default : No
Forced : No

Text #7
ID : 14
Format : UTF-8
Codec ID : S_TEXT/UTF8
Codec ID/Info : UTF-8 Plain Text
Duration : 1 h 47 min
Bit rate : 57 b/s
Count of elements : 1628
Stream size : 45.0 KiB (0%)
Title : Full
Language : English
Default : No
Forced : No

Text #8
ID : 15
Format : UTF-8
Codec ID : S_TEXT/UTF8
Codec ID/Info : UTF-8 Plain Text
Duration : 1 h 54 min
Bit rate : 66 b/s
Count of elements : 2054
Stream size : 55.4 KiB (0%)
Title : SDH
Language : English
Default : No
Forced : No

Text #9
ID : 16
Format : UTF-8
Codec ID : S_TEXT/UTF8
Codec ID/Info : UTF-8 Plain Text
Duration : 1 h 54 min
Bit rate : 91 b/s
Count of elements : 2054
Stream size : 77.0 KiB (0%)
Title : SDH-Colored
Language : English
Default : No
Forced : No

Menu
00:00:00.000 : Chapter 01
00:08:16.496 : Chapter 02
00:12:23.409 : Chapter 03
00:18:56.886 : Chapter 04
00:24:30.219 : Chapter 05
00:31:35.102 : Chapter 06
00:36:14.464 : Chapter 07
00:41:26.984 : Chapter 08
00:48:05.174 : Chapter 09
00:53:18.404 : Chapter 10
00:59:13.258 : Chapter 11
01:05:53.199 : Chapter 12
01:12:02.944 : Chapter 13
01:17:33.065 : Chapter 14
01:25:00.387 : Chapter 15
01:34:41.843 : Chapter 16
01:49:38.322 : Chapter 17

pb.wtf



Скачать Анчартед: На картах не значится через торрент https://i5.imageban.ru/out/2022/04/23/3aa7f79c50222b5f63f3d71f55ba23f0.jpg Скачать, смотреть онлайн Анчартед: На картах не значится бесплантно в хорошем качестве Описание: Фильм расскажет предысторию героя игр Uncharted Нэйтана Дрейка, которому суждено стать искателем приключений и охотником за ... 9.2 10 29
Info! Золотая раздача, скачанное не засчитывается.
Торрент: Зарегистрирован [2022-06-02 15:11] · скачан: 188 раз
Статус: √ проверено
Размер: 5.65 GB
Как cкачать? Как скачать Анчартед: На картах не значится через торрент | UTorrent

% Раздел Тема Автор DL S | L
Фильмы 2022 [DVDrip, WEB-DLRip, HDrip] (DUB, MVO) [ 3.72 GB ] Анчартед: На картах не значится / Uncharted [2022 BDRip-AVC] DUB MVO [Невафильм HDRezka Studio Jaskier TVShows] от ExKinoRay Lithuania Скачать
2 | 0
Фильмы 2022 [DVDrip, WEB-DLRip, HDrip] (DUB, MVO) [ 2.65 GB ] Анчартед: На картах не значится / Uncharted [2022 BDRip-AVC] DUB [Невафильм] bober100 Скачать
3 | 0
Фильмы (Blu-ray, BD-Remux, HDDVD) [ 33.49 GB ] Анчартед: На картах не значится / Uncharted [2022 BD Remux 1080p] DUB [Невафильм] +3xMVO bober100 Скачать
2 | 0
Фильмы [HD 720p, 1080p] (Хороший звук DUB, MVO) [ 4.2 GB ] Анчартед: На картах не значится / Uncharted [2022 BDRip 720p] MVO [Jaskier] bober100 Скачать
2 | 0
Фильмы 2022 [DVDrip, WEB-DLRip, HDrip] (DUB, MVO) [ 1.46 GB ] Анчартед: На картах не значится / Uncharted [2022 BDRip] MVO [Jaskier] bober100 Скачать
1 | 0
Фильмы 2022 [DVDrip, WEB-DLRip, HDrip] (DUB, MVO) [ 1.46 GB ] Анчартед: На картах не значится / Uncharted [2022 BDRip] MVO [HDRezka Studio] bober100 Скачать
10 | 0
Фильмы с украинским озвучиванием [ 2.85 GB ] Анчартед: На картах не значится / Uncharted [2022 BDRip-AVC] [Ukr DUB] + [Ukr MVO] killermax2013 Скачать
1 | 0


Последний раз редактировалось: bober100 (2022-04-25 16:51), всего редактировалось 2 раз(а)

28-11-2019 20:33  

Отключить вcю реклaмy на сайте

06-06-2022 06:02 Анчартед: На картах не значится Скачать торрент  

Скучный.
В фиг знает какой раз пересмотреть Индиану Джонс - будет намного поинтереснейpb.wtf



    Дорогой пользователь! Огромная просьба, поблагодарите релизера, оцените раздачу и оставьте свои комментарий, если Вы скачали Анчартед: На картах не значится через торрент бесплатно!
    Комментировать посты могут только пользователи прошедшие не сложную регистрацию
    Показать сообщения:    

    Анчартед: На картах не значится через торрент
    Скачать бесплатно Анчартед: На картах не значится
    Анчартед: На картах не значится скачать торрент
    Анчартед: На картах не значится смотреть онлайн
    Cкачать фильм Анчартед: На картах не значится бесплатно
    Анчартед: На картах не значится скачать торрент в хорошем качестве
    Анчартед: На картах не значится смотреть онлайн бесплатно в хорошем качестве


    Вы не можете начинать темы
    Вы не можете отвечать на сообщения
    Вы не можете редактировать свои сообщения
    Вы не можете удалять свои сообщения
    Вы не можете голосовать в опросах
    Вы не можете прикреплять файлы к сообщениям
    Вы можете скачивать файлы