Всегда рабочее зеркало без VPN и Proxy просто перед .vidak.icu напиши любое слово или цифру, Пример http://m2l0.vidak.icu

MVO

MVO

1 сезон

1

1 сезон

iTunes

1 сезон

13

1 сезон

Deluxe

pack

Рекомендуем

Repack

30

ВАЖНО

RePack

MK11

RePack

jed

RePack

fifa19

RePack

RDR2

RePack

NEED FOR SPEED™ PAYBACK

Кинопоиск HD

6 сезон

 Острые козырьки 6 сезон

Все сериалы

все сериалы на PB.wtf

RePack

FAR CRY 5
  
Magnet ссылка

Невыносимая тяжесть огромного таланта / The Unbearable Weight of Massive Talen (Том Гормикэн) [2022, Боевик, комедия, криминал, BDRip 1080p] 3xMVO [Jaskier, NewComers, TVShows] pb.wtf

Невыносимая тяжесть огромного таланта через торрент pb.wtf

Раздают: 6 [ 59 KB/s ]
Размер: 11.32 GB | Добавлен: 1 мес. 18 д. назад | Торрент скачан:183 раза
Смотреть онлайн Невыносимая тяжесть огромного таланта | Скачать    Ребята, помогите собрать деньги на оплату серверов!!!

06-06-2022 16:26 Невыносимая тяжесть огромного таланта Скачать торрент  

Невыносимая тяжесть огромного таланта
The Unbearable Weight of Massive Talen

Год выпуска: 2022
Страна: США
Студия: Burr! Productions, Embassy Films, Lionsgate, Saturn Films
Жанр: Боевик, комедия, криминал
Продолжительность: 01:46:51
Перевод(ы):
#1: Профессиональный многоголосый | Jaskier
#2: Профессиональный многоголосый | NewComers
#3: Профессиональный многоголосый | TVShows
Субтитры: Русские (Forced, full), английские

Режиссер: Том Гормикэн

rating

В ролях: Николас Кейдж, Педро Паскаль, Тиффани Хэддиш, Шэрон Хорган, Пако Леон, Нил Патрик Харрис, Лили Мо Шин, Алессандра Мастронарди, Джейкоб Скипио, Катрин Ванкова и другие.

Описание: Карьера Николаса Кейджа медленно, но верно катится под откос. У него море долгов и большие проблемы в отношениях с дочерью. Однако актер не теряет надежды получить роль в новом фильме Квентина Тарантино. Ко всему прочему, к Николасу является он сам образца 1990-х и ругает его за неудачные роли в низкопробном кино и многочисленные упущенные возможности.
После того, как Кейдж соглашается появиться на дне рождения мексиканского миллиардера и своего большого фаната, к актеру обращаются из ЦРУ и сообщают, что его клиент — глава наркокартеля, похитивший дочь кандидата в президенты Мексики. Кейджу предстоит стать настоящим шпионом и сыграть величайшую роль своей жизни. «Невыносимая тяжесть огромного таланта» — комедия с Николасом Кейджем в роли Николаса Кейджа.

Качество: BDRip 1080p
Формат: MKV

Видео: MPEG-4 AVC, 1920x804, 13.5 Mbit/s, 23.976 fps
Аудио #01: 48 kHz, AC3, 5.1, 448 Kbps | Профессиональный многоголосый | Jaskier | RUS |
Аудио #02: 48 kHz, AC3, 5.1, 384 Kbps | Профессиональный многоголосый | NewComers | RUS |
Аудио #03: 48 kHz, AC3, 2.0, 192 Kbps | Профессиональный многоголосый | TVShows | RUS |
Аудио #04: 48 kHz, AC3, 5.1, 640 Kbps | Оригинал | ENG |
скриншот  скриншот  скриншот  скриншот  скриншот  

General
Unique ID : 180428321390181955476053748337902532796 (0x87BD3B0F07A5417AE3D68A835DC2B8BC)
Complete name : D:Video1The.Unbearable.Weight.of.Massive.Talent.2022.BDRip.1080p.seleZen.mkv
Format : Matroska
Format version : Version 4
File size : 11.3 GiB
Duration : 1 h 46 min
Overall bit rate : 15.2 Mb/s
Movie name : The Unbearable Weight of Massive Talent 2022 seleZen
Encoded date : UTC 2022-06-21 16:39:38
Writing application : mkvmerge v59.0.0 ('Shining Star') 64-bit
Writing library : libebml v1.4.2 + libmatroska v1.6.4

Video
ID : 1
Format : AVC
Format/Info : Advanced Video Codec
Format profile : [email protected]
Format settings : CABAC / 5 Ref Frames
Format settings, CABAC : Yes
Format settings, Reference : 5 frames
Codec ID : V_MPEG4/ISO/AVC
Duration : 1 h 46 min
Bit rate : 13.5 Mb/s
Width : 1 920 pixels
Height : 804 pixels
Display aspect ratio : 2.40:1
Frame rate mode : Constant
Frame rate : 23.976 (24000/1001) FPS
Color space : YUV
Chroma subsampling : 4:2:0
Bit depth : 8 bits
Scan type : Progressive
Bits/(Pixel*Frame) : 0.365
Stream size : 10.1 GiB (89%)
Writing library : x264 core 146 -from seleZen
Encoding settings : cabac=1 / ref=5 / deblock=1:-2:-2 / analyse=0x3:0x133 / me=esa / subme=11 / psy=1 / psy_rd=1.04:0.02 / mixed_ref=1 / me_range=48 / chroma_me=1 / trellis=2 / 8x8dct=1 / cqm=0 / deadzone=21,11 / fast_pskip=0 / chroma_qp_offset=-3 / threads=72 / lookahead_threads=6 / sliced_threads=0 / nr=0 / decimate=0 / interlaced=0 / bluray_compat=0 / constrained_intra=0 / bframes=10 / b_pyramid=2 / b_adapt=2 / b_bias=0 / direct=3 / weightb=1 / open_gop=0 / weightp=2 / keyint=240 / keyint_min=23 / scenecut=40 / intra_refresh=0 / rc_lookahead=50 / rc=2pass / mbtree=0 / bitrate=13500 / ratetol=1.0 / qcomp=0.60 / qpmin=0 / qpmax=51 / qpstep=4 / cplxblur=20.0 / qblur=0.5 / vbv_maxrate=50000 / vbv_bufsize=62500 / nal_hrd=none / filler=0 / ip_ratio=1.40 / pb_ratio=1.30 / aq=3:0.80
Language : English
Default : Yes
Forced : No

Audio #1
ID : 2
Format : AC-3
Format/Info : Audio Coding 3
Commercial name : Dolby Digital
Codec ID : A_AC3
Duration : 1 h 46 min
Bit rate mode : Constant
Bit rate : 448 kb/s
Channel(s) : 6 channels
Channel layout : L R C LFE Ls Rs
Sampling rate : 48.0 kHz
Frame rate : 31.250 FPS (1536 SPF)
Compression mode : Lossy
Stream size : 342 MiB (3%)
Title : MVO [Jaskier]
Language : Russian
Service kind : Complete Main
Default : Yes
Forced : Yes

Audio #2
ID : 3
Format : AC-3
Format/Info : Audio Coding 3
Commercial name : Dolby Digital
Codec ID : A_AC3
Duration : 1 h 46 min
Bit rate mode : Constant
Bit rate : 384 kb/s
Channel(s) : 6 channels
Channel layout : L R C LFE Ls Rs
Sampling rate : 48.0 kHz
Frame rate : 31.250 FPS (1536 SPF)
Compression mode : Lossy
Stream size : 293 MiB (3%)
Title : MVO [NewComers]
Language : Russian
Service kind : Complete Main
Default : No
Forced : No

Audio #3
ID : 4
Format : AC-3
Format/Info : Audio Coding 3
Commercial name : Dolby Digital
Codec ID : A_AC3
Duration : 1 h 46 min
Bit rate mode : Constant
Bit rate : 192 kb/s
Channel(s) : 2 channels
Channel layout : L R
Sampling rate : 48.0 kHz
Frame rate : 31.250 FPS (1536 SPF)
Compression mode : Lossy
Stream size : 147 MiB (1%)
Title : MVO [TVShows]
Language : Russian
Service kind : Complete Main
Default : No
Forced : No

Audio #4
ID : 5
Format : AC-3
Format/Info : Audio Coding 3
Commercial name : Dolby Digital
Format settings : Dolby Surround EX
Codec ID : A_AC3
Duration : 1 h 46 min
Bit rate mode : Constant
Bit rate : 640 kb/s
Channel(s) : 6 channels
Channel layout : L R C LFE Ls Rs
Sampling rate : 48.0 kHz
Frame rate : 31.250 FPS (1536 SPF)
Compression mode : Lossy
Stream size : 489 MiB (4%)
Title : Original
Language : English
Service kind : Complete Main
Default : No
Forced : No

Text #1
ID : 6
Format : UTF-8
Codec ID : S_TEXT/UTF8
Codec ID/Info : UTF-8 Plain Text
Duration : 1 h 36 min
Bit rate : 3 b/s
Count of elements : 67
Stream size : 2.82 KiB (0%)
Title : Forced
Language : Russian
Default : No
Forced : No

Text #2
ID : 7
Format : UTF-8
Codec ID : S_TEXT/UTF8
Codec ID/Info : UTF-8 Plain Text
Duration : 1 h 37 min
Bit rate : 134 b/s
Count of elements : 1906
Stream size : 95.8 KiB (0%)
Title : Full
Language : Russian
Default : No
Forced : No

Text #3
ID : 8
Format : UTF-8
Codec ID : S_TEXT/UTF8
Codec ID/Info : UTF-8 Plain Text
Duration : 1 h 37 min
Bit rate : 79 b/s
Count of elements : 2042
Stream size : 57.0 KiB (0%)
Title : Full
Language : English
Default : No
Forced : No

Text #4
ID : 9
Format : UTF-8
Codec ID : S_TEXT/UTF8
Codec ID/Info : UTF-8 Plain Text
Duration : 1 h 37 min
Bit rate : 82 b/s
Count of elements : 2073
Stream size : 59.1 KiB (0%)
Title : SDH
Language : English
Default : No
Forced : No

Menu
00:00:00.000 : Глава 01
00:06:52.287 : Глава 02
00:13:02.949 : Глава 03
00:18:37.199 : Глава 04
00:23:51.889 : Глава 05
00:30:58.857 : Глава 06
00:35:46.728 : Глава 07
00:44:35.006 : Глава 08
00:52:18.469 : Глава 09
00:57:09.426 : Глава 10
01:01:42.574 : Глава 11
01:07:50.817 : Глава 12
01:17:42.783 : Глава 13
01:22:12.928 : Глава 14
01:28:39.064 : Глава 15
01:35:49.953 : Глава 16

pb.wtf



Скачать Невыносимая тяжесть огромного таланта через торрент https://i120.fastpic.org/big/2022/0609/7e/57093dda6da59674f17af664d4d3187e.jpg Скачать, смотреть онлайн Невыносимая тяжесть огромного таланта бесплантно в хорошем качестве Описание: Карьера Николаса Кейджа медленно, но верно катится под откос. У него море долгов и большие проблемы в отношениях с дочерью. ... 9.4 10 24
Торрент: Зарегистрирован [2022-06-21 17:12] · скачан: 183 раз
Статус: √ проверено
Размер: 11.32 GB
Как cкачать? Как скачать Невыносимая тяжесть огромного таланта через торрент | UTorrent

% Раздел Тема Автор DL S | L
Фильмы 2022 [DVDrip, WEB-DLRip, HDrip] (DUB, MVO) [ 2.1 GB ] Невыносимая тяжесть огромного таланта / The Unbearable Weight of Massive Talent [2022 WEB-DLRip-AVC] MVO [NewComers] от ExKinoRay Lithuania Скачать
9 | 1
Ultra HD (UHD: 2K, 4K, 8K) — видео сверхвысокой чёткости [ 55.22 GB ] Невыносимая тяжесть огромного таланта / The Unbearable Weight of Massive Talen [2022 UHD BDRemux 2160p ] 3xMVO [Jaskier NewComers TVShows] bober100 Скачать
1 | 1
Фильмы 2022 [DVDrip, WEB-DLRip, HDrip] (DUB, MVO) [ 1.46 GB ] Невыносимая тяжесть огромного таланта / The Unbearable Weight of Massive Talen [2022 BDRip] MVO [Jaskier] bober100 Скачать
6 | 0


Последний раз редактировалось: bober100 (2022-06-21 17:14), всего редактировалось 5 раз(а)

28-11-2019 20:33  

Отключить вcю реклaмy на сайте

06-06-2022 19:27 Невыносимая тяжесть огромного таланта Скачать торрент  

Я так понимаю, в дубляже ждать не стоит?pb.wtf



06-06-2022 20:34 Невыносимая тяжесть огромного таланта Скачать торрент  

88romka88 писал(а):

Я так понимаю, в дубляже ждать не стоит?

30.06.22 релиз. Возможно и бубняж будетpb.wtf



07-06-2022 11:33 Невыносимая тяжесть огромного таланта Скачать торрент  

Кейдж и 7.4, да ладно, он же бездарность, ладно решился, тут же рейтинг..., хватило на 10 мин, Кейдж бездарность, оценка для его фильмов, должна быть стабильная 3.0, максисум 4pb.wtf



07-06-2022 11:37 Невыносимая тяжесть огромного таланта Скачать торрент  

Кстати, а медальки за ссиды только избранным раздают, почему у меня нет?pb.wtf



08-06-2022 14:38 Невыносимая тяжесть огромного таланта Скачать торрент  

не слушайте никого. 10 минут? пива мало было) фильм хороший и стоит внимания!pb.wtf



09-06-2022 09:51 Невыносимая тяжесть огромного таланта Скачать торрент  

tka4ov81 писал(а):

Кейдж и 7.4, да ладно, он же бездарность, ладно решился, тут же рейтинг..., хватило на 10 мин, Кейдж бездарность, оценка для его фильмов, должна быть стабильная 3.0, максисум 4

Кейдж бездарность? Ммм, понял тебя. Переигрывать он любит, да, но бездарностью у меня бы даже язык не повернулся его назвать. Если тебя хватило на 10 минут, то твой отзыв/комментарий не имеет никакого смысла, иди смотри Марвел.pb.wtf



09-06-2022 11:05 Невыносимая тяжесть огромного таланта Скачать торрент  

nylans писал(а):

tka4ov81 писал(а):

Кейдж и 7.4, да ладно, он же бездарность, ладно решился, тут же рейтинг..., хватило на 10 мин, Кейдж бездарность, оценка для его фильмов, должна быть стабильная 3.0, максисум 4

Кейдж бездарность? Ммм, понял тебя. Переигрывать он любит, да, но бездарностью у меня бы даже язык не повернулся его назвать. Если тебя хватило на 10 минут, то твой отзыв/комментарий не имеет никакого смысла, иди смотри Марвел.

Хорошо сказано! Поддерживаю!pb.wtf



09-06-2022 13:01 Невыносимая тяжесть огромного таланта Скачать торрент  

tka4ov81 писал(а):

Кейдж и 7.4, да ладно, он же бездарность, ладно решился, тут же рейтинг..., хватило на 10 мин, Кейдж бездарность, оценка для его фильмов, должна быть стабильная 3.0, максисум 4

Действительно, куда ему до невыносимой тяжести твоего огромного таланта, не правда ли?pb.wtf



21-06-2022 19:03 Невыносимая тяжесть огромного таланта Скачать торрент  

посмотри хотя бы без лицаpb.wtf



22-06-2022 16:59 Невыносимая тяжесть огромного таланта Скачать торрент  

"Оружейный барон" или "Глаза змеи",чего стоят!Ну или "Воздушная тюрьма" и "Угнать за 60 сек.","Пророк"...pb.wtf



24-06-2022 08:45 Невыносимая тяжесть огромного таланта Скачать торрент  

dersky-5 писал(а):

"Оружейный барон" или "Глаза змеи",чего стоят!Ну или "Воздушная тюрьма" и "Угнать за 60 сек.","Пророк"...

Согласен все фильмы лучшие в его карьере, в них есть сюжет, сценарий, актерская игра , но этот шлак о чем может нам повествовать, нет сценария, нет сюжета, рейтинг завышен однозначно!pb.wtf



24-06-2022 16:24 Невыносимая тяжесть огромного таланта Скачать торрент  

tka4ov81 писал(а):

Кейдж и 7.4, да ладно, он же бездарность, ладно решился, тут же рейтинг..., хватило на 10 мин, Кейдж бездарность, оценка для его фильмов, должна быть стабильная 3.0, максисум 4

Сам ты бездарь! он один из ветеранов боевиков девяностых, сейчас другая эра фильмов и к сожалению он вынужден сниматься в том , что предлагают, тьфу тебе в лицо.pb.wtf



    Дорогой пользователь! Огромная просьба, поблагодарите релизера, оцените раздачу и оставьте свои комментарий, если Вы скачали Невыносимая тяжесть огромного таланта через торрент бесплатно!
    Комментировать посты могут только пользователи прошедшие не сложную регистрацию
    Показать сообщения:    

    Невыносимая тяжесть огромного таланта через торрент
    Скачать бесплатно Невыносимая тяжесть огромного таланта
    Невыносимая тяжесть огромного таланта скачать торрент
    Невыносимая тяжесть огромного таланта смотреть онлайн
    Cкачать фильм Невыносимая тяжесть огромного таланта бесплатно
    Невыносимая тяжесть огромного таланта скачать торрент в хорошем качестве
    Невыносимая тяжесть огромного таланта смотреть онлайн бесплатно в хорошем качестве


    Вы не можете начинать темы
    Вы не можете отвечать на сообщения
    Вы не можете редактировать свои сообщения
    Вы не можете удалять свои сообщения
    Вы не можете голосовать в опросах
    Вы не можете прикреплять файлы к сообщениям
    Вы можете скачивать файлы