Доктор Стрэндж

Лицензия

Добыча

Дубляж

Уэнсдэй

1 сезон

Тор

Дубляж

В эфире

Дубляж

Там, где раки поют

MVO

Властелин колец

1 сезон

Deluxe

pack

Рекомендуем

30

Пиратка

ВАЖНО

ВАЖНО

Ghostwire

Пиратка

jed

RePack

nioh2

RePack

RDR2

RePack

NEED FOR SPEED™ PAYBACK

RePack

скачать торрент

Кинопоиск HD

Острые козырьки 6 сезон

6 сезон

FAR CRY 6

RePack

скачать торрент

Лицензия

скачать торрент

MVO

1

1 сезон

скачать торрент

1 сезон

скачать торрент

Лицензия

  

Джуманджи: Новый уровень в 3D / Jumanji: The Next Level in 3D (Джейк Кэздан) [2019 г., Фэнтези, боевик, комедия, приключения, BDRip 1080p, Дубляж] Анаглиф (Дюбуа) от R.G. HD-Films

Джуманджи: Новый уровень в 3D через торрент pb.wtf

Размер: 7.05 GB | Добавлен: 5 мес. 23 д. назад | Торрент скачан:3 раза
Смотреть онлайн | Скачать   

10-06-2022 11:39 Джуманджи: Новый уровень в 3D Скачать торрент  

Джуманджи: Новый уровень в 3D / Jumanji: The Next Level in 3D
Год выпуска: 2019
Страна: США
Жанр: Фэнтези, боевик, комедия, приключения
Продолжительность: 02:03:09
Перевод: Дубляж
Субтитры: Русские (Forced вшитые, full), украинские, английские

Режиссер: Джейк Кэздан

Бюджет: $125 000 000
Премьера в мире: 4 декабря 2019

rating

В ролях: Карен Гиллан, Дуэйн Джонсон, Дэнни ДеВито, Мэдисон Айсмен, Джек Блэк, Аквафина, Эшли Скотт, Кевин Харт, Ник Джонас, Риз Дэрби, Колин Хэнкс

Описание: Однажды четыре обычных американских подростка находят необычную игру. Вся необычность этой игры состояла в том, что она была живой. Внезапно игра затягивает подростков внутрь. Внутрь мира, где всё по-другому. Где они не простые подростки, а настоящие герои, обладающие невероятные и удивительными способностями, которые могут помочь спасти игровой мир. Однако здесь царя свои правила, которым приходится подчиняться. Но, с другой стороны, это же всего лишь игра, в которой можно схитрить, можно нарушить правила, можно обойти привычные законы. Осталось только найти, как это сделать без ущерба жизни.

Доп. информация: Формат 3D: Анаглиф (Дюбуа)



Качество: BDRip 1080p
Формат: MKV
Видео кодек: H.264
Аудио кодек: AC3
Видео: 1920 x 1080 (16:9), 6269 kbps, 23,976 fps, 0.126 bpp
Аудио#1: Русский / AC3 / 48 KHz / 5.1 ch / 640 Kbps (Дубляж - BD 2D)
Аудио#2: Украинский / AC3 / 48 KHz / 5.1 ch / 640 Kbps (Дубляж - BD 2D)
Аудио#3: English / AC3 / 48 KHz / 5.1 ch / 640 Kbps (Original - BD 3D)
Релиз от: Автор рипа: slaventi-69
x264 [info]: profile High, level 4.1
x264 [info]: frame I:2208 Avg QP:13.19 size:158706
x264 [info]: frame P:47199 Avg QP:14.53 size: 59341
x264 [info]: frame B:127762 Avg QP:16.72 size: 20658
x264 [info]: consecutive B-frames: 3.6% 4.5% 14.9% 32.5% 44.4%


Общее
Уникальный идентификатор : 255480267893189502341007911485495532245 (0xC033B5B6575C1A0976B921AAAD8F5AD5)
Полное имя : G:\60 FPS\Jumanji_The.Next.Level.(2019).3D.(Anaglyph_Dubois).mkv
Формат : Matroska
Версия формата : Version 4
Размер файла : 7,05 Гбайт
Продолжительность : 2 ч. 3 м.
Общий поток : 8192 Кбит/сек
Название фильма : Джуманджи: Новый уровень / Jumanji: The Next Level (2019) in 3D (Anaglyph_Dubois)
Дата кодирования : UTC 2022-06-10 09:24:32
Программа кодирования : mkvmerge v25.0.0 ('Prog Noir') 64-bit
Библиотека кодирования : libebml v1.3.6 + libmatroska v1.4.9

Видео
Идентификатор : 1
Формат : AVC
Формат/Информация : Advanced Video Codec
Профиль формата : [email protected]
Настройки формата : CABAC / 4 Ref Frames
Параметр CABAC формата : Да
Параметр RefFrames формата : 4 кадра
Идентификатор кодека : V_MPEG4/ISO/AVC
Продолжительность : 2 ч. 3 м.
Битрейт : 6269 Кбит/сек
Ширина : 1920 пикселей
Высота : 1080 пикселей
Соотношение сторон : 16:9
Режим частоты кадров : Постоянный
Частота кадров : 23,976 кадра/сек
Цветовое пространство : YUV
Субдискретизация насыщенности : 4:2:0
Битовая глубина : 8 бит
Тип развёртки : Прогрессивная
Бит/(Пиксели*Кадры) : 0.126
Размер потока : 5,39 Гбайт (77%)
Заголовок : slaventi-69 ( R.G. HD-Films ) 3Д (Anaglyph_Dubois)
Библиотека кодирования : x264 core 130 r2273 b3065e6
Настройки программы : cabac=1 / ref=4 / deblock=1:-3:-3 / analyse=0x3:0x133 / me=umh / subme=9 / psy=1 / psy_rd=1.00:0.00 / mixed_ref=1 / me_range=32 / chroma_me=1 / trellis=2 / 8x8dct=1 / cqm=0 / deadzone=21,11 / fast_pskip=0 / chroma_qp_offset=-2 / threads=8 / lookahead_threads=4 / sliced_threads=0 / nr=0 / decimate=1 / interlaced=0 / bluray_compat=0 / constrained_intra=0 / bframes=4 / b_pyramid=2 / b_adapt=2 / b_bias=0 / direct=1 / weightb=1 / open_gop=0 / weightp=2 / keyint=600 / keyint_min=23 / scenecut=40 / intra_refresh=0 / rc=crf / mbtree=0 / crf=19.7 / qcomp=0.60 / qpmin=0 / qpmax=69 / qpstep=4 / ip_ratio=1.40 / pb_ratio=1.30 / aq=1:1.00
Язык : English
Default : Да
Forced : Нет

Аудио #1
Идентификатор : 2
Формат : AC-3
Формат/Информация : Audio Coding 3
Коммерческое название : Dolby Digital
Идентификатор кодека : A_AC3
Продолжительность : 2 ч. 3 м.
Вид битрейта : Постоянный
Битрейт : 640 Кбит/сек
Каналы : 6 каналов
Channel layout : L R C LFE Ls Rs
Частота : 48,0 КГц
Частота кадров : 31,250 кадров/сек (1536 SPF)
Битовая глубина : 16 бит
Метод сжатия : С потерями
Размер потока : 564 Мбайт (8%)
Заголовок : Дубляж
Язык : Russian
ServiceKind/String : Complete Main
Default : Да
Forced : Нет

Аудио #2
Идентификатор : 3
Формат : AC-3
Формат/Информация : Audio Coding 3
Коммерческое название : Dolby Digital
Идентификатор кодека : A_AC3
Продолжительность : 2 ч. 3 м.
Вид битрейта : Постоянный
Битрейт : 640 Кбит/сек
Каналы : 6 каналов
Channel layout : L R C LFE Ls Rs
Частота : 48,0 КГц
Частота кадров : 31,250 кадров/сек (1536 SPF)
Битовая глубина : 16 бит
Метод сжатия : С потерями
Размер потока : 564 Мбайт (8%)
Заголовок : Дубляж
Язык : Ukrainian
ServiceKind/String : Complete Main
Default : Нет
Forced : Нет

Аудио #3
Идентификатор : 4
Формат : AC-3
Формат/Информация : Audio Coding 3
Коммерческое название : Dolby Digital
Идентификатор кодека : A_AC3
Продолжительность : 2 ч. 3 м.
Вид битрейта : Постоянный
Битрейт : 640 Кбит/сек
Каналы : 6 каналов
Channel layout : L R C LFE Ls Rs
Частота : 48,0 КГц
Частота кадров : 31,250 кадров/сек (1536 SPF)
Битовая глубина : 16 бит
Метод сжатия : С потерями
Размер потока : 564 Мбайт (8%)
Заголовок : Original (BD 3D)
Язык : English
ServiceKind/String : Complete Main
Default : Нет
Forced : Нет

Текст #1
Идентификатор : 5
Формат : UTF-8
Идентификатор кодека : S_TEXT/UTF8
Идентификатор кодека/Информация : UTF-8 Plain Text
Продолжительность : 2 ч. 2 м.
Битрейт : 79 бит/сек
ElementCount : 1604
Размер потока : 71,3 Кбайт (0%)
Заголовок : Полные
Язык : Russian
Default : Нет
Forced : Нет

Текст #2
Идентификатор : 6
Формат : UTF-8
Идентификатор кодека : S_TEXT/UTF8
Идентификатор кодека/Информация : UTF-8 Plain Text
Продолжительность : 1 ч. 39 м.
Битрейт : 1 бит/сек
ElementCount : 9
Размер потока : 816 байт (0%)
Заголовок : Форсированные (ver. Ash61)
Язык : Ukrainian
Default : Нет
Forced : Нет

Текст #3
Идентификатор : 7
Формат : UTF-8
Идентификатор кодека : S_TEXT/UTF8
Идентификатор кодека/Информация : UTF-8 Plain Text
Продолжительность : 2 ч. 1 м.
Битрейт : 75 бит/сек
ElementCount : 1571
Размер потока : 67,2 Кбайт (0%)
Заголовок : Полные
Язык : Ukrainian
Default : Нет
Forced : Нет

Текст #4
Идентификатор : 8
Формат : UTF-8
Идентификатор кодека : S_TEXT/UTF8
Идентификатор кодека/Информация : UTF-8 Plain Text
Продолжительность : 1 ч. 52 м.
Битрейт : 58 бит/сек
ElementCount : 1719
Размер потока : 48,5 Кбайт (0%)
Заголовок : Full
Язык : English
Default : Нет
Forced : Нет

Текст #5
Идентификатор : 9
Формат : UTF-8
Идентификатор кодека : S_TEXT/UTF8
Идентификатор кодека/Информация : UTF-8 Plain Text
Продолжительность : 2 ч. 2 м.
Битрейт : 58 бит/сек
ElementCount : 1852
Размер потока : 52,8 Кбайт (0%)
Заголовок : SDH (BD 3D Aus)
Язык : English
Default : Нет
Forced : Нет

Меню
00:00:00.000 : :1
00:05:24.741 : :2
00:11:43.286 : :3
00:17:27.755 : :4
00:23:26.363 : :5
00:29:30.560 : :6
00:37:46.222 : :7
00:45:39.862 : :8
00:53:17.945 : :9
00:58:55.449 : :10
01:05:20.875 : :11
01:13:54.388 : :12
01:19:53.122 : :13
01:26:13.877 : :14
01:32:26.124 : :15
01:39:36.679 : :16
01:49:13.255 : :17
01:54:19.394 : :18

Просьба к переливающим на другие сайты, в оформлении указывайте пожалуйста авторство группы R.G. HD-Films



Скачать Джуманджи: Новый уровень в 3D через торрент https://i.postimg.cc/pTmMqKFc/47c0f753e52892e8bbc926a376fcf910.png Скачать, смотреть онлайн Джуманджи: Новый уровень в 3D бесплантно в хорошем качестве Описание: Однажды четыре обычных американских подростка находят необычную игру. Вся необычность этой игры состояла в том, что она была ... 5.5 10 2
Торрент: Зарегистрирован [2022-06-10 11:39] · скачан: 3 раз
Статус: √ проверено
Размер: 7.05 GB
Как cкачать? Как скачать Джуманджи: Новый уровень в 3D через торрент | UTorrent

% Раздел Тема Автор DL S | L
3D Фильмы [ 16.93 GB ] Джуманджи: Новый уровень в 3Д / Jumanji: The Next Level 3D | | 1080p serega768 Скачать
1 | 0

28-11-2019 20:33  


Отключить вcю реклaмy на сайте, в т.ч. и в плеере онлайн просмотра!

    Дорогой пользователь! Огромная просьба, поблагодарите релизера, оцените раздачу и оставьте свои комментарий, если Вы скачали Джуманджи: Новый уровень в 3D через торрент бесплатно!!
    Комментировать посты могут только пользователи прошедшие не сложную регистрацию
    Показать сообщения:    


    Джуманджи: Новый уровень в 3D через торрент
    Скачать бесплатно Джуманджи: Новый уровень в 3D
    Джуманджи: Новый уровень в 3D скачать торрент
    Джуманджи: Новый уровень в 3D смотреть онлайн
    Cкачать фильм Джуманджи: Новый уровень в 3D бесплатно
    Джуманджи: Новый уровень в 3D скачать торрент в хорошем качестве
    Джуманджи: Новый уровень в 3D смотреть онлайн бесплатно в хорошем качестве
    Вы не можете начинать темы
    Вы не можете отвечать на сообщения
    Вы не можете редактировать свои сообщения
    Вы не можете удалять свои сообщения
    Вы не можете голосовать в опросах
    Вы не можете прикреплять файлы к сообщениям
    Вы можете скачивать файлы
    Джуманджи: Новый уровень в 3D / Jumanji: The Next Level in 3D [2019 г., Фэнтези, боевик, комедия, приключения, BDRip 1080p, Дубляж] Анаглиф от R.G. HD-Films смотреть онлайн, скачать торрент picoco.icu