Всегда рабочее зеркало без VPN и Proxy просто перед .vidak.icu напиши любое слово или цифру, Пример http://lohg.vidak.icu

Лицензия

MVO

1 сезон

1

1 сезон

iTunes

1 сезон

13

1 сезон

Deluxe

pack

Рекомендуем

Repack

30

ВАЖНО

RePack

MK11

RePack

jed

RePack

fifa19

RePack

RDR2

RePack

NEED FOR SPEED™ PAYBACK

Кинопоиск HD

6 сезон

 Острые козырьки 6 сезон

Все сериалы

все сериалы на PB.wtf

RePack

FAR CRY 5
  
Magnet ссылка

Летающий корабль-призрак / Sora Tobu Yureisen (Flying Phantom Ship) (Хироси Икэда) [1969 г., Приключения, фантастика, драма, полнометражный, WEB-DLRip, Дубляж Лицензия] pb.wtf

Летающий корабль-призрак через торрент pb.wtf

Раздают: 1 [ 0 KB/s ]
Размер: 1.56 GB | Добавлен: 2 мес. 3 д. назад | Торрент скачан:47 раз
Смотреть онлайн Летающий корабль-призрак | Скачать    Ребята, помогите собрать деньги на оплату серверов!!!

11-06-2022 16:42 Летающий корабль-призрак Скачать торрент  

Летающий корабль-призрак / Sora Tobu Yureisen (Flying Phantom Ship)
Год выпуска: 1969
Страна: Япония, Toei Animation
Жанр: Приключения, фантастика, драма, полнометражный
Продолжительность: 01:00:31
Перевод: Дубляж, профессиональный многоголосый
Субтитры: Русские, английские

Режиссер: Хироси Икэда

Премьера в мире: 20 июля 1969

rating

В ролях: Горо Ная, Масако Нодзава, Юкико Окада, Акира Нагоя, Акио Танака, Куоко Сатоми, Кодзи Томита, Кейичи Нода, Исаму Танонака, Хироши Масуока, Куоко Аи, Джуди Онгг, Хироюки Ота

Описание: Многие годы в океане бесследно пропадают корабли. Люди, чудом оставшиеся в живых, вспоминают что незадолго до катастрофы они видели таинственный Корабль-Призрак… Город, в котором живёт маленький Хаято, подвергся нападению гигантского робота. Голем, разрушающий кварталы Токио, объявляет себя посланцем Корабля-Призрака… Родители Хаято погибли под обломками, и единственный оставшийся друг — это его собака. Хаято хочет отомстить владельцу таинственного Корабля-призрака, ведь робот представился его посланником. Потеряв семью, он попадает в дом господина Куросио, главного борца с Кораблём-призраком, крупнейшего магната в городе. На улицах города, у всех на глазах исчезают люди. Все считают, что это козни Корабля-Призрака… И совершенно случайно Хаято попадает на секретный подземный завод, где узнаёт, что реальное положение вещей не соответствует словам господина Куросио. Теперь у отважного мальчика Хаято есть повод сомневаться в причастности Корабля-Призрака. Он готов отправиться в рискованное приключение, чтобы узнать тайну Корабля-Призрака и его загадочного капитана! Теперь его жизнь подвергается большой опасности, и только он один может помешать планам злодеев.

Доп. информация: Союзмультфильм (Дубляж): Алексей Консовский, Мария Виноградова, Ольга Громова, Владимир Ферапонтов, Владимир Кенигсон, Роза Макагонова
Реанимедиа (Дубляж ): Андрей Новиков, Алина Тарасова, Елена Симанович, Гозий Махмудов, Александр Фильченко, Вероника Райциз

Качество: WEB-DLRip
Видео: MKV
Видео кодек: AVC
Аудио кодек: AC3
Видео: MPEG-4 AVC, 2500 Кбит/с, 1024x434
Аудио#1: Русский (AC3, 2 ch, 192 Кбит/с) Дубляж (Reanimedia)
Аудио#2: Русский (AC3, 2 ch, 192 Кбит/с) Дубляж (Союзмультфильм)
Аудио#3: Русский (AC3, 6 ch, 384 Кбит/с) Многоголосый (DVD-9 / MC Entertainment)
Аудио#4: японский (AC3, 6 ch, 384 Кбит/с) DVD9
Аудио#5: японский (AC3, 2 ch, 192 Кбит/с) AMZN





Общее
Уникальный идентификатор : 23594177374860056747478154274316150041 (0x11C012C1F3358738B212AE27A43EE519)
Полное имя : E:\торенты\zagrujehhie\Letajuschij.Korabl-Prisrak.1969.WEB-DLRip.(AVC).Agentx.mkv
Формат : Matroska
Версия формата : Version 4
Размер файла : 1,56 Гбайт
Продолжительность : 1 ч. 1 м.
Общий поток : 3 626 Кбит/сек
Название фильма : Letajuschij.Korabl-Prisrak.1969.WEB-DLRip.(AVC).Agentx
Дата кодирования : UTC 2022-06-08 08:32:51
Программа кодирования : mkvmerge v58.0.0 ('Supper's Ready') 64-bit
Библиотека кодирования : libebml v1.4.2 + libmatroska v1.6.4
Attachments : digistrip_0.ttf / GROBOLD Medium_0.ttf / SilkRoad_0.ttf / trebucbd_0.ttf / trebucbi_0.ttf

Видео
Идентификатор : 1
Формат : AVC
Формат/Информация : Advanced Video Codec
Профиль формата : [email protected]
Настройки формата : CABAC / 4 Ref Frames
Параметр CABAC формата : Да
Параметр RefFrames формата : 4 кадра
Идентификатор кодека : V_MPEG4/ISO/AVC
Продолжительность : 58 м. 3 с.
Битрейт : 2 500 Кбит/сек
Ширина : 1 024 пикселя
Высота : 434 пикселя
Соотношение сторон : 2,35:1
Режим частоты кадров : Постоянный
Частота кадров : 25,000 кадров/сек
Цветовое пространство : YUV
Субдискретизация насыщенности : 4:2:0
Битовая глубина : 8 бит
Тип развёртки : Прогрессивная
Бит/(Пиксели*Кадры) : 0.225
Размер потока : 1,01 Гбайт (65%)
Заголовок : Letajuschij.Korabl-Prisrak.1969.WEB-DLRip.(AVC).Agentx
Библиотека кодирования : x264 core 157 r2935 545de2f
Настройки программы : cabac=1 / ref=2 / deblock=1:0:0 / analyse=0x1:0x111 / me=hex / subme=6 / psy=1 / psy_rd=1.00:0.00 / mixed_ref=1 / me_range=16 / chroma_me=1 / trellis=1 / 8x8dct=0 / cqm=0 / deadzone=21,11 / fast_pskip=1 / chroma_qp_offset=-2 / threads=12 / lookahead_threads=2 / sliced_threads=0 / nr=0 / decimate=1 / interlaced=0 / bluray_compat=0 / constrained_intra=0 / bframes=3 / b_pyramid=2 / b_adapt=1 / b_bias=0 / direct=1 / weightb=1 / open_gop=0 / weightp=1 / keyint=250 / keyint_min=25 / scenecut=40 / intra_refresh=0 / rc_lookahead=30 / rc=2pass / mbtree=1 / bitrate=2500 / ratetol=1.0 / qcomp=0.60 / qpmin=0 / qpmax=69 / qpstep=4 / cplxblur=20.0 / qblur=0.5 / vbv_maxrate=20000 / vbv_bufsize=25000 / nal_hrd=none / filler=0 / ip_ratio=1.40 / aq=1:1.00
Default : Да
Forced : Нет
Цветовой диапазон : Limited
Основные цвета : BT.709
Характеристики трансфера : BT.709
Коэффициенты матрицы : BT.709

Аудио #1
Идентификатор : 2
Формат : AC-3
Формат/Информация : Audio Coding 3
Коммерческое название : Dolby Digital
Идентификатор кодека : A_AC3
Продолжительность : 58 м. 3 с.
Вид битрейта : Постоянный
Битрейт : 192 Кбит/сек
Каналы : 2 канала
Channel layout : L R
Частота : 48,0 КГц
Частота кадров : 31,250 кадров/сек (1536 SPF)
Метод сжатия : С потерями
Задержка видео : -5 мс.
Размер потока : 79,7 Мбайт (5%)
Заголовок : Дубляж (Reanimedia)
Язык : Russian
Service kind : Complete Main
Default : Да
Forced : Нет

Аудио #2
Идентификатор : 3
Формат : AC-3
Формат/Информация : Audio Coding 3
Коммерческое название : Dolby Digital
Идентификатор кодека : A_AC3
Продолжительность : 58 м. 3 с.
Вид битрейта : Постоянный
Битрейт : 192 Кбит/сек
Каналы : 2 канала
Channel layout : L R
Частота : 48,0 КГц
Частота кадров : 31,250 кадров/сек (1536 SPF)
Метод сжатия : С потерями
Задержка видео : -5 мс.
Размер потока : 79,7 Мбайт (5%)
Заголовок : Дубляж (Союз Мультфильм)
Язык : Russian
Service kind : Complete Main
Default : Нет
Forced : Нет

Аудио #3
Идентификатор : 4
Формат : AC-3
Формат/Информация : Audio Coding 3
Коммерческое название : Dolby Digital
Идентификатор кодека : A_AC3
Продолжительность : 58 м. 3 с.
Вид битрейта : Постоянный
Битрейт : 384 Кбит/сек
Каналы : 6 каналов
Channel layout : L R C LFE Ls Rs
Частота : 48,0 КГц
Частота кадров : 31,250 кадров/сек (1536 SPF)
Метод сжатия : С потерями
Задержка видео : -5 мс.
Размер потока : 159 Мбайт (10%)
Заголовок : Многоголосый (DVD-9 / MC Entertainment)
Язык : Russian
Service kind : Complete Main
Default : Нет
Forced : Нет

Аудио #4
Идентификатор : 5
Формат : AC-3
Формат/Информация : Audio Coding 3
Коммерческое название : Dolby Digital
Идентификатор кодека : A_AC3
Продолжительность : 58 м. 3 с.
Вид битрейта : Постоянный
Битрейт : 384 Кбит/сек
Каналы : 6 каналов
Channel layout : L R C LFE Ls Rs
Частота : 48,0 КГц
Частота кадров : 31,250 кадров/сек (1536 SPF)
Метод сжатия : С потерями
Задержка видео : -5 мс.
Размер потока : 159 Мбайт (10%)
Заголовок : DVD9
Язык : Japanese
Service kind : Complete Main
Default : Нет
Forced : Нет

Аудио #5
Идентификатор : 6
Формат : AC-3
Формат/Информация : Audio Coding 3
Коммерческое название : Dolby Digital
Идентификатор кодека : A_AC3
Продолжительность : 58 м. 3 с.
Вид битрейта : Постоянный
Битрейт : 192 Кбит/сек
Каналы : 2 канала
Channel layout : L R
Частота : 48,0 КГц
Частота кадров : 31,250 кадров/сек (1536 SPF)
Метод сжатия : С потерями
Задержка видео : -5 мс.
Размер потока : 79,7 Мбайт (5%)
Заголовок : AMZN
Язык : Japanese
Service kind : Complete Main
Default : Нет
Forced : Нет

Текст #1
Идентификатор : 7
Формат : UTF-8
Идентификатор кодека : S_TEXT/UTF8
Идентификатор кодека/Информация : UTF-8 Plain Text
Продолжительность : 57 м. 30 с.
Битрейт : 86 бит/сек
Count of elements : 662
Размер потока : 36,5 Кбайт (0%)
Язык : Russian
Default : Нет
Forced : Нет

Текст #2
Идентификатор : 8
Формат : UTF-8
Идентификатор кодека : S_TEXT/UTF8
Идентификатор кодека/Информация : UTF-8 Plain Text
Продолжительность : 1 ч. 1 м.
Битрейт : 55 бит/сек
Count of elements : 691
Размер потока : 24,9 Кбайт (0%)
Язык : English
Default : Нет
Forced : Нет

pb.wtf



Скачать Летающий корабль-призрак через торрент https://i120.fastpic.org/big/2022/0611/f7/41d7e742e0f368e587714e3e7ee7d6f7.jpg Скачать, смотреть онлайн Летающий корабль-призрак бесплантно в хорошем качестве Описание: Многие годы в океане бесследно пропадают корабли. Люди, чудом оставшиеся в живых, вспоминают что незадолго до катастрофы они ... 10 10 2
Торрент: Зарегистрирован [2022-06-11 16:42] · скачан: 47 раз
Статус: √ проверено
Размер: 1.56 GB
Как cкачать? Как скачать Летающий корабль-призрак через торрент | UTorrent

28-11-2019 20:33  

Отключить вcю реклaмy на сайте

11-06-2022 19:16 Летающий корабль-призрак Скачать торрент  

смотрел как мне было еще 4 годика! на всю жизнь этот мультpb.wtf



    Дорогой пользователь! Огромная просьба, поблагодарите релизера, оцените раздачу и оставьте свои комментарий, если Вы скачали Летающий корабль-призрак через торрент бесплатно!
    Комментировать посты могут только пользователи прошедшие не сложную регистрацию
    Показать сообщения:    

    Летающий корабль-призрак через торрент
    Скачать бесплатно Летающий корабль-призрак
    Летающий корабль-призрак скачать торрент
    Летающий корабль-призрак смотреть онлайн
    Cкачать фильм Летающий корабль-призрак бесплатно
    Летающий корабль-призрак скачать торрент в хорошем качестве
    Летающий корабль-призрак смотреть онлайн бесплатно в хорошем качестве


    Вы не можете начинать темы
    Вы не можете отвечать на сообщения
    Вы не можете редактировать свои сообщения
    Вы не можете удалять свои сообщения
    Вы не можете голосовать в опросах
    Вы не можете прикреплять файлы к сообщениям
    Вы можете скачивать файлы