Всегда рабочее зеркало без VPN и Proxy просто перед .vidak.icu напиши любое слово или цифру, Пример http://36jf.vidak.icu

Лицензия

MVO

1 сезон

1

1 сезон

iTunes

1 сезон

13

1 сезон

Deluxe

pack

Рекомендуем

Repack

30

ВАЖНО

RePack

MK11

RePack

jed

RePack

fifa19

RePack

RDR2

RePack

NEED FOR SPEED™ PAYBACK

Кинопоиск HD

6 сезон

 Острые козырьки 6 сезон

Все сериалы

все сериалы на PB.wtf

RePack

FAR CRY 5
  
Magnet ссылка

Эротический массаж женщине [2020 г., обучающие материалы (видео уроки), WEB-DLRip] pb.wtf

Эротический массаж женщине [2020 г., обучающие материалы через торрент pb.wtf

Раздают: 15 [ 74 KB/s ]
Размер: 3.7 GB | Добавлен: 2 мес. 1 д. назад | Торрент скачан:230 раз
Смотреть онлайн Эротический массаж женщине [2020 г., обучающие материалы | Скачать    Ребята, помогите собрать деньги на оплату серверов!!!

11-06-2022 17:41 Эротический массаж женщине [2020 г., обучающие материалы Скачать торрент  

Эротический массаж женщине
Год выпуска: 2020
Автор: Вадим Волков
Производство: alhimikvs.com
Язык : Русский
Страна: Россия
Жанр: обучающие материалы (видео уроки)
Продолжительность: 02:00:37 - (Эпизоды от 00:00:18 до 00:18:43)
Категория : +18

Описание:
3 блока с подробными видео уроками
- ТОНКОСТИ Расслабления 8 ВИДЕО УРОКОВ
- ТЕХНИКА ЭРОТИЧЕСКОГО Массажа 7 УРОКОВ
- СЕКСУАЛЬНЫЕ Практики 3 УРОКА

ЭРОТИЧЕСКИЙ МАССАЖ
ЧТО МЕШАЕТ ОРГАЗМУ БЫТЬ
КАК ИСКАТЬ ТОЧКИ НАПРЯЖЕНИЯ
ЭРОГЕННЫЕ ЗОНЫ
МАССАЖ ЙОНИ (ВИДЕО) Часть I
МАССАЖ ЙОНИ (ВИДЕО) Часть II
ЖЕНСКИЙ ОРГАЗМ
ОРГАЗМ (который ещё круче)

СЕКСУАЛЬНЫЕ ПРАКТИКИ
ЛЕД И СТРАСТЬ
ВЕРЁВОЧКА
СЕКСУАЛЬНЫЕ ПРАКТИКИ

РАССЛАБЛЯЮЩИЙ МАССАЖ
ПРЕВЬЮ КУРСА
Общая схема массажа
Мобильное приложение (Beta)
МАССАЖ СПИНЫ (ВИДЕО)
МАССАЖ ЯГОДИЦ (ВИДЕО)
ТОЧКИ НА ЯГОДИЦАХ (ВИДЕО)
МАССАЖ НОГ (ВИДЕО)
ФУТ МАССАЖ (ВИДЕО)
МАССАЖ РУК (ВИДЕО)
МАССАЖ ЖИВОТА (ВИДЕО)
Качество видео: WEB-DL
Видео: AVC/H.264, 1920x1080, 24fps ~5017 Kbps
Аудио: AAC LC, 2 ch, 317 Kbps
Общее
Полное имя : МАССАЖ СПИНЫ (ВИДЕО) - Алхимия Массажа.mp4
Формат : MPEG-4
Профиль формата : Base Media / Version 2
Идентификатор кодека : mp42 (mp42/mp41)
Размер файла : 715 Мбайт
Продолжительность : 18 м. 43 с.
Общий поток : 5 339 Кбит/сек
Дата кодирования : UTC 2020-01-05 14:48:01
Дата пометки : UTC 2020-01-05 14:48:13
TIM : 00:36:06:13
TSC : 24
TSZ : 1

Видео
Идентификатор : 1
Формат : AVC
Формат/Информация : Advanced Video Codec
Профиль формата : [email protected]
Настройки формата : CABAC / 4 Ref Frames
Параметр CABAC формата : Да
Параметр RefFrames формата : 4 кадра
Идентификатор кодека : avc1
Идентификатор кодека/Информация : Advanced Video Coding
Продолжительность : 18 м. 43 с.
Битрейт : 5 018 Кбит/сек
Ширина : 1 920 пикселей
Высота : 1 080 пикселей
Соотношение сторон : 16:9
Режим частоты кадров : Постоянный
Частота кадров : 24,000 кадра/сек
Цветовое пространство : YUV
Субдискретизация насыщенности : 4:2:0
Битовая глубина : 8 бит
Тип развёртки : Прогрессивная
Бит/(Пиксели*Кадры) : 0.101
Размер потока : 672 Мбайт (94%)
Язык : English
Дата кодирования : UTC 2020-01-05 14:48:01
Дата пометки : UTC 2020-01-05 14:48:01
Цветовой диапазон : Limited
Основные цвета : BT.709
Характеристики трансфера : BT.709
Коэффициенты матрицы : BT.709
Codec configuration box : avcC

Аудио
Идентификатор : 2
Формат : AAC LC
Формат/Информация : Advanced Audio Codec Low Complexity
Идентификатор кодека : mp4a-40-2
Продолжительность : 18 м. 43 с.
Продолжительность оригинала : 18 м. 43 с.
Вид битрейта : Постоянный
Битрейт : 317 Кбит/сек
Каналы : 2 канала
Channel layout : L R
Частота : 48,0 КГц
Частота кадров : 46,875 кадров/сек (1024 SPF)
Метод сжатия : С потерями
Размер потока : 42,5 Мбайт (6%)
Размер потока оригинала : 42,5 Мбайт (6%)
Язык : English
Дата кодирования : UTC 2020-01-05 14:48:01
Дата пометки : UTC 2020-01-05 14:48:01
pb.wtf



Скачать Эротический массаж женщине [2020 г., обучающие материалы через торрент https://i120.fastpic.org/big/2022/0611/c9/03a002727b28449d2133754d6a853ec9.png Скачать, смотреть онлайн Эротический массаж женщине [2020 г., обучающие материалы бесплантно в хорошем качестве Описание:3 блока с подробными видео уроками- ТОНКОСТИ Расслабления 8 ВИДЕО УРОКОВ- ТЕХНИКА ЭРОТИЧЕСКОГО Массажа 7 УРОКОВ- СЕКСУАЛЬНЫЕ ... 10 10 9
Info! Золотая раздача, скачанное не засчитывается.
Торрент: Зарегистрирован [2022-06-11 17:41] · скачан: 230 раз
Статус: √ проверено
Размер: 3.7 GB
Как cкачать? Как скачать Эротический массаж женщине [2020 г., обучающие материалы через торрент | UTorrent



Последний раз редактировалось: urapavel (2022-06-12 05:19), всего редактировалось 2 раз(а)

28-11-2019 20:33  

Отключить вcю реклaмy на сайте

11-06-2022 21:05 Эротический массаж женщине [2020 г., обучающие материалы Скачать торрент  

ну так то материал интересен с точки зрения общего развития и местами даже необходим в полевых условиях) вобщем, забираю для подробного изучения))pb.wtf



11-06-2022 21:28 Эротический массаж женщине [2020 г., обучающие материалы Скачать торрент  

На последнем скриншоте вся суть массажа pb.wtf



11-06-2022 22:32 Эротический массаж женщине [2020 г., обучающие материалы Скачать торрент  

главное, успеть хорошенько нажамкать сиськи и жопу, пока она не поняла, что никакой ты не массажист...pb.wtf



12-06-2022 04:09 Эротический массаж женщине [2020 г., обучающие материалы Скачать торрент  

arti_arti писал(а):

На последнем скриншоте вся суть массажа

pb.wtf



12-06-2022 07:27 Эротический массаж женщине [2020 г., обучающие материалы Скачать торрент  

solovyov писал(а):

главное, успеть хорошенько нажамкать сиськи и жопу, пока она не поняла, что никакой ты не массажист...

на допскринах она уже что-то подозревает))pb.wtf



    Дорогой пользователь! Огромная просьба, поблагодарите релизера, оцените раздачу и оставьте свои комментарий, если Вы скачали Эротический массаж женщине [2020 г., обучающие материалы через торрент бесплатно!
    Комментировать посты могут только пользователи прошедшие не сложную регистрацию
    Показать сообщения:    

    Эротический массаж женщине [2020 г., обучающие материалы через торрент
    Скачать бесплатно Эротический массаж женщине [2020 г., обучающие материалы
    Эротический массаж женщине [2020 г., обучающие материалы скачать торрент
    Эротический массаж женщине [2020 г., обучающие материалы смотреть онлайн
    Cкачать фильм Эротический массаж женщине [2020 г., обучающие материалы бесплатно
    Эротический массаж женщине [2020 г., обучающие материалы скачать торрент в хорошем качестве
    Эротический массаж женщине [2020 г., обучающие материалы смотреть онлайн бесплатно в хорошем качестве


    Вы не можете начинать темы
    Вы не можете отвечать на сообщения
    Вы не можете редактировать свои сообщения
    Вы не можете удалять свои сообщения
    Вы не можете голосовать в опросах
    Вы не можете прикреплять файлы к сообщениям
    Вы можете скачивать файлы