Всегда рабочее зеркало без VPN и Proxy просто перед .vidak.icu напиши любое слово или цифру, Пример http://uq8o.vidak.icu

Лицензия

MVO

1 сезон

1

1 сезон

iTunes

1 сезон

13

1 сезон

Deluxe

pack

Рекомендуем

Repack

30

ВАЖНО

RePack

MK11

RePack

jed

RePack

fifa19

RePack

RDR2

RePack

NEED FOR SPEED™ PAYBACK

Кинопоиск HD

6 сезон

 Острые козырьки 6 сезон

Все сериалы

все сериалы на PB.wtf

RePack

FAR CRY 5
  
Magnet ссылка

UFC on ESPN 37: Kattar vs. Emmett / Full Event / UFC Fight Pass [18.06.2022, MMA, WEB-DLRip/1080p/25fps, MKV/H.264, RU] pb.wtf

UFC on ESPN 37: Kattar vs. Emmett через торрент pb.wtf

Размер: 14.64 GB | Добавлен: 1 мес. 24 д. назад | Торрент скачан:15 раз
Смотреть онлайн UFC on ESPN 37: Kattar vs. Emmett | Скачать    Ребята, помогите собрать деньги на оплату серверов!!!

19-06-2022 05:12 UFC on ESPN 37: Kattar vs. Emmett Скачать торрент  

UFC on ESPN 37: Kattar vs. Emmett / Full Event
Год выпуска: 18.06.2022
Вид спорта: MMA
Продолжительность: 05:48:31
Язык комментариев: Русский
Комментаторы: Вадим Фурсов, Михаил Вахнеев, Алексей Володин, Ян Баранчук
Выпущено: США, UFC Fight Pass

Описание: 18 июня в Остине (штат Техас, США) на арене «Moody Center» состоялся турнир UFC on ESPN 37. В главном бою вечера четвёртый номер рейтинга полулёгкой весовой категории Келвин Кэттер встретился с седьмым в списке лучших бойцов дивизиона Джошем Эмметом. Чуть раньше Альберт Дураев столкнулся с автором лучшего нокаута 2020 года Хоакином Бакли. Также в главном карде зрителей ждало крайне интригующее противостояние, когда в одном октагоне оказался Дамир Исмагулов и Гурам Кутателадзе. Открывал турнир поединок с участием Романа Долидзе, грузинский боец встретился с Кайлом Дакасом.

Автор релиза:
Реклама: Отсутствует

Качество: WEB-DLRip 1080p
Формат: MKV

Видео: MPEG-4 AVC, 1920x1080, ~ 5900 Кбит/с, 25.000 FPS
Аудио: AC3, 2 ch, 192 Кбит/с, 48.0 kHz
Предварительный кард:

Средний вес: Роман Долидзе - Кайл Дакас
Средний вес: Филипп Хоуз - Дерон Винн
Легчайший вес: Эдди Вайнлэнд - Коди Стэменн
Женщины, минимальный вес: Мария Оливейра - Глория Де Паула
Полулёгкий вес: Рикардо Рамос - Дэнни Чавез
Полусредний вес: Курт МакГи - Джеремая Уэллс
Женщины, наилегчайший вес: Жасмин Джасдавидиус - Наталья Силва

Основной кард:

Легчайший вес: Эдриен Янез - Тони Келли
Средний вес: Джулиан Маркез - Грегори Родригес
Лёгкий вес: Дамир Исмагулов - Гурам Кутателадзе
Средний вес: Хоакин Бакли - Альберт Дураев
Полусредний вес: Тим Минс - Кевин Холлэнд
Полулёгкий вес: Келвин Кэттер - Джош Эмметт
Общее
Уникальный идентификатор : 125917648940251455059228524954997580324 (0x5EBADB686BC24B6E1545A3875A5D6224)
Полное имя : D:\UFC.[18.06.2022].1080p.RU.7turza\01.UFC.[18.06.2022].Prelims.RU.7turza.mkv
Формат : Matroska
Версия формата : Version 4
Размер файла : 6,82 Гбайт
Продолжительность : 2 ч. 42 м.
Общий поток : 6021 Кбит/сек
Название фильма : 01.UFC.[18.06.2022].Prelims.RU.7turza
Дата кодирования : UTC 2022-06-18 23:09:17
Программа кодирования : mkvmerge v68.0.0 ('The Curtain') 64-bit
Библиотека кодирования : libebml v1.4.2 + libmatroska v1.6.4
Attachments : poster.jpg

Видео
Идентификатор : 1
Формат : AVC
Формат/Информация : Advanced Video Codec
Профиль формата : [email protected]
Настройки формата : CABAC / 1 Ref Frames
Параметр CABAC формата : Да
Параметр RefFrames формата : 1 кадр
Параметр GOP формата : M=1, N=50
Идентификатор кодека : V_MPEG4/ISO/AVC
Продолжительность : 2 ч. 42 м.
Битрейт : 5826 Кбит/сек
Ширина : 1920 пикселей
Высота : 1080 пикселей
Соотношение сторон : 16:9
Режим частоты кадров : Постоянный
Частота кадров : 25,000 кадров/сек
Цветовое пространство : YUV
Субдискретизация насыщенности : 4:2:0
Битовая глубина : 8 бит
Тип развёртки : Прогрессивная
Бит/(Пиксели*Кадры) : 0.112
Размер потока : 6,60 Гбайт (97%)
Библиотека кодирования : x264 core 160 r3000
Настройки программы : cabac=1 / ref=1 / deblock=1:0:0 / analyse=0x3:0x113 / me=hex / subme=4 / psy=1 / psy_rd=1.00:0.00 / mixed_ref=0 / me_range=16 / chroma_me=1 / trellis=1 / 8x8dct=1 / cqm=0 / deadzone=21,11 / fast_pskip=1 / chroma_qp_offset=0 / threads=4 / lookahead_threads=1 / sliced_threads=0 / nr=0 / decimate=1 / interlaced=0 / bluray_compat=0 / constrained_intra=0 / bframes=0 / weightp=1 / keyint=50 / keyint_min=5 / scenecut=0 / intra_refresh=0 / rc_lookahead=20 / rc=abr / mbtree=1 / bitrate=4927 / ratetol=1.0 / qcomp=0.60 / qpmin=0 / qpmax=69 / qpstep=4 / vbv_maxrate=18599 / vbv_bufsize=11718 / nal_hrd=none / filler=0 / ip_ratio=1.40 / aq=1:1.00
Default : Да
Forced : Нет

Аудио
Идентификатор : 2
Формат : AC-3
Формат/Информация : Audio Coding 3
Коммерческое название : Dolby Digital
Идентификатор кодека : A_AC3
Продолжительность : 2 ч. 42 м.
Вид битрейта : Постоянный
Битрейт : 192 Кбит/сек
Каналы : 2 канала
ChannelLayout : L R
Частота : 48,0 КГц
Частота кадров : 31,250 кадров/сек (1536 SPF)
Метод сжатия : С потерями
Размер потока : 223 Мбайт (3%)
ServiceKind/String : Complete Main
Default : Да
Forced : Нет
pb.wtf



Скачать UFC on ESPN 37: Kattar vs. Emmett через торрент https://i120.fastpic.org/big/2022/0618/d3/a11f4357bfac928015c602464affb1d3.jpg Скачать, смотреть онлайн UFC on ESPN 37: Kattar vs. Emmett бесплантно в хорошем качестве Описание: 18 июня в Остине (штат Техас, США) на арене «Moody Center» состоялся турнир UFC on ESPN 3 В главном бою вечера четвёртый номер ... 10 10 3
Торрент: Зарегистрирован [2022-06-19 05:12] · скачан: 15 раз
Статус: √ проверено
Размер: 14.64 GB
Как cкачать? Как скачать UFC on ESPN 37: Kattar vs. Emmett через торрент | UTorrent

28-11-2019 20:33  

Отключить вcю реклaмy на сайте

    Дорогой пользователь! Огромная просьба, поблагодарите релизера, оцените раздачу и оставьте свои комментарий, если Вы скачали UFC on ESPN 37: Kattar vs. Emmett через торрент бесплатно!
    Комментировать посты могут только пользователи прошедшие не сложную регистрацию
    Показать сообщения:    

    UFC on ESPN 37: Kattar vs. Emmett через торрент
    Скачать бесплатно UFC on ESPN 37: Kattar vs. Emmett
    UFC on ESPN 37: Kattar vs. Emmett скачать торрент
    UFC on ESPN 37: Kattar vs. Emmett смотреть онлайн
    Cкачать фильм UFC on ESPN 37: Kattar vs. Emmett бесплатно
    UFC on ESPN 37: Kattar vs. Emmett скачать торрент в хорошем качестве
    UFC on ESPN 37: Kattar vs. Emmett смотреть онлайн бесплатно в хорошем качестве


    Вы не можете начинать темы
    Вы не можете отвечать на сообщения
    Вы не можете редактировать свои сообщения
    Вы не можете удалять свои сообщения
    Вы не можете голосовать в опросах
    Вы не можете прикреплять файлы к сообщениям
    Вы можете скачивать файлы