Всегда рабочее зеркало без VPN и Proxy просто перед .vidak.icu напиши любое слово или цифру, Пример http://j90k.vidak.icu

Лицензия

MVO

1 сезон

1

1 сезон

iTunes

1 сезон

13

1 сезон

Deluxe

pack

Рекомендуем

Repack

30

ВАЖНО

RePack

MK11

RePack

jed

RePack

fifa19

RePack

RDR2

RePack

NEED FOR SPEED™ PAYBACK

Кинопоиск HD

6 сезон

 Острые козырьки 6 сезон

Все сериалы

все сериалы на PB.wtf

RePack

FAR CRY 5
  
Magnet ссылка

Мышиная охота / Mousehunt (Гор Вербински) [1997 г., комедия, WEB-DLRip 720p / 60 FPS, Дубляж] Open Matte от R.G. HD-Films pb.wtf

Мышиная охота через торрент pb.wtf

Раздают: 1 [ 0 KB/s ]
Размер: 3.98 GB | Добавлен: 1 мес. 26 д. назад | Торрент скачан:33 раза
Смотреть онлайн Мышиная охота | Скачать    Ребята, помогите собрать деньги на оплату серверов!!!

22-06-2022 09:53 Мышиная охота Скачать торрент  

Мышиная охота / Mousehunt
Год выпуска: 1997
Страна: США
Жанр: комедия
Продолжительность: 01:37:27
Перевод: Дубляж
Субтитры: русские, английские

Режиссер: Гор Вербински

Бюджет: $38 000 000
Премьера в мире: 19 декабря 1997,

rating

В ролях: Натан Лейн, Ли Эванс, Вики Льюис, Мори Чайкин, Эрик Кристмас, Майкл Джитер, Кристофер Уокен, Дебра Кристофферсон, Камилла Сёэберг, Йен Эберкромби

Описание: Братья Ларс и Эрни Шмунц не придают особого значения унаследованному ими старому полуразрушенному особняку до тех пор, пока они не узнают, что их ветхая недвижимость стоит миллионы. Но есть одна проблема.

Чтобы продать дом, братья должны избавиться от его единственного и упрямого обитателя — маленькой, но очень цепкой мыши. То, что поначалу кажется детской игрой, становится настоящей грандиозной битвой.


Качество: WEB-DLRip 720p / 60 FPS
Формат: MKV
Видео кодек: H.264
Аудио кодек: AC3
Видео: x264, 1280 x 720 ( 16:9 ), 5612 kbps, 60,000 fps, ( 0.106 bpp)
Аудио#1: Russian: 48 kHz, AC3, 2/0 (L,R) ch, ~224.00 kbps avg |Дубляж, Ист-Вест|
Релиз от: Автор рипа: slaventi-69
x264 [info]: profile High, level 4.1
x264 [info]: frame I:1571 Avg QP:13.81 size: 80770
x264 [info]: frame P:75912 Avg QP:15.09 size: 29845
x264 [info]: frame B:273383 Avg QP:17.91 size: 6254
x264 [info]: consecutive B-frames: 1.5% 1.1% 3.6% 22.8% 38.2% 32.8%


Общее
Уникальный идентификатор : 189781732540288484497786607195245095441 (0x8EC6A1D537E2B18C0CFE55E3F1FDAA11)
Полное имя : G:\60 FPS\Mousehunt.(1997).WEB-DLRip.720p.(60 Fps).(Open Matte).mkv
Формат : Matroska
Версия формата : Version 4
Размер файла : 3,98 Гбайт
Продолжительность : 1 ч. 37 м.
Общий поток : 5840 Кбит/сек
Название фильма : Мышиная охота / Mousehunt (1997) WEB-DLRip 720p (60 Fps) | Open Matte
Дата кодирования : UTC 2022-06-21 09:42:04
Программа кодирования : mkvmerge v25.0.0 ('Prog Noir') 64-bit
Библиотека кодирования : libebml v1.3.6 + libmatroska v1.4.9

Видео
Идентификатор : 1
Формат : AVC
Формат/Информация : Advanced Video Codec
Профиль формата : [email protected]
Настройки формата : CABAC / 9 Ref Frames
Параметр CABAC формата : Да
Параметр RefFrames формата : 9 кадров
Идентификатор кодека : V_MPEG4/ISO/AVC
Продолжительность : 1 ч. 37 м.
Битрейт : 5612 Кбит/сек
Ширина : 1280 пикселей
Высота : 688 пикселей
Соотношение сторон : 1,85:1
Режим частоты кадров : Постоянный
Частота кадров : 60,000 кадров/сек
Цветовое пространство : YUV
Субдискретизация насыщенности : 4:2:0
Битовая глубина : 8 бит
Тип развёртки : Прогрессивная
Бит/(Пиксели*Кадры) : 0.106
Размер потока : 3,82 Гбайт (96%)
Заголовок : slaventi-69 ( R.G. HD-Films | 60 fps )
Библиотека кодирования : x264 core 130 r2273 b3065e6
Настройки программы : cabac=1 / ref=9 / deblock=1:-3:-3 / analyse=0x3:0x133 / me=umh / subme=9 / psy=1 / psy_rd=1.00:0.00 / mixed_ref=1 / me_range=32 / chroma_me=1 / trellis=2 / 8x8dct=1 / cqm=0 / deadzone=21,11 / fast_pskip=0 / chroma_qp_offset=-2 / threads=8 / lookahead_threads=4 / sliced_threads=0 / nr=0 / decimate=1 / interlaced=0 / bluray_compat=0 / constrained_intra=0 / bframes=5 / b_pyramid=2 / b_adapt=2 / b_bias=0 / direct=1 / weightb=1 / open_gop=0 / weightp=2 / keyint=600 / keyint_min=23 / scenecut=40 / intra_refresh=0 / rc=crf / mbtree=0 / crf=15.3 / qcomp=0.60 / qpmin=0 / qpmax=69 / qpstep=4 / ip_ratio=1.40 / pb_ratio=1.30 / aq=1:1.00
Язык : English
Default : Да
Forced : Нет

Аудио
Идентификатор : 2
Формат : AC-3
Формат/Информация : Audio Coding 3
Коммерческое название : Dolby Digital
Идентификатор кодека : A_AC3
Продолжительность : 1 ч. 37 м.
Вид битрейта : Постоянный
Битрейт : 224 Кбит/сек
Каналы : 2 канала
Channel layout : L R
Частота : 48,0 КГц
Частота кадров : 31,250 кадров/сек (1536 SPF)
Битовая глубина : 16 бит
Метод сжатия : С потерями
Размер потока : 156 Мбайт (4%)
Заголовок : Dub ( Ист-Вест )
Язык : Russian
ServiceKind/String : Complete Main
Default : Да
Forced : Нет

Текст #1
Идентификатор : 3
Формат : UTF-8
Идентификатор кодека : S_TEXT/UTF8
Идентификатор кодека/Информация : UTF-8 Plain Text
Продолжительность : 1 ч. 32 м.
Битрейт : 69 бит/сек
ElementCount : 835
Размер потока : 47,2 Кбайт (0%)
Язык : Russian
Default : Нет
Forced : Нет

Текст #2
Идентификатор : 4
Формат : UTF-8
Идентификатор кодека : S_TEXT/UTF8
Идентификатор кодека/Информация : UTF-8 Plain Text
Продолжительность : 1 ч. 31 м.
Битрейт : 44 бит/сек
ElementCount : 849
Размер потока : 30,1 Кбайт (0%)
Язык : English
Default : Нет
Forced : Нет

Текст #3
Идентификатор : 5
Формат : UTF-8
Идентификатор кодека : S_TEXT/UTF8
Идентификатор кодека/Информация : UTF-8 Plain Text
Продолжительность : 1 ч. 31 м.
Битрейт : 49 бит/сек
ElementCount : 964
Размер потока : 33,0 Кбайт (0%)
Заголовок : SDH
Язык : English
Default : Нет
Forced : Нет

Меню
00:00:00.000 : en:The Funeral (Main Titles)
00:06:50.000 : en:A Date with the Mayor
00:09:35.000 : en:The String
00:16:29.000 : en:What a Dump
00:21:28.000 : en:The Missing Larue
00:25:27.000 : en:A Single Vermin
00:30:37.000 : en:Sweet Dreams
00:34:18.000 : en:Never Underestimate Your Opponent
00:40:14.000 : en:Catzilla
00:44:46.000 : en:Ernie Smells a Rat
00:48:12.000 : en:Caesar
00:51:53.000 : en:All Strung Out
00:57:22.000 : en:What a Drag
01:02:06.000 : en:What a Gas
01:06:45.000 : en:Shoot! Shoot!
01:09:03.000 : en:Sibling Rivalry
01:14:13.000 : en:The Auction
01:24:53.000 : en:Going... Going... Gone!
01:29:21.000 : en:String Cheese
01:32:48.000 : en:End Titles

Просьба к переливающим на другие сайты, в оформлении указывайте пожалуйста авторство группы R.G. HD-Films pb.wtf



Скачать Мышиная охота через торрент https://i114.fastpic.ru/big/2020/1224/0c/b023b523385b50af15349c48f780a60c.jpg Скачать, смотреть онлайн Мышиная охота бесплантно в хорошем качестве Описание: Братья Ларс и Эрни Шмунц не придают особого значения унаследованному ими старому полуразрушенному особняку до тех пор, пока они ... 9.9 10 7
Info! Золотая раздача, скачанное не засчитывается.
Торрент: Зарегистрирован [2022-06-22 09:53] · скачан: 33 раз
Статус: √ проверено
Размер: 3.98 GB
Как cкачать? Как скачать Мышиная охота через торрент | UTorrent

28-11-2019 20:33  

Отключить вcю реклaмy на сайте

22-06-2022 10:16 Мышиная охота Скачать торрент  

Угарный фильмpb.wtf



    Дорогой пользователь! Огромная просьба, поблагодарите релизера, оцените раздачу и оставьте свои комментарий, если Вы скачали Мышиная охота через торрент бесплатно!
    Комментировать посты могут только пользователи прошедшие не сложную регистрацию
    Показать сообщения:    

    Мышиная охота через торрент
    Скачать бесплатно Мышиная охота
    Мышиная охота скачать торрент
    Мышиная охота смотреть онлайн
    Cкачать фильм Мышиная охота бесплатно
    Мышиная охота скачать торрент в хорошем качестве
    Мышиная охота смотреть онлайн бесплатно в хорошем качестве


    Вы не можете начинать темы
    Вы не можете отвечать на сообщения
    Вы не можете редактировать свои сообщения
    Вы не можете удалять свои сообщения
    Вы не можете голосовать в опросах
    Вы не можете прикреплять файлы к сообщениям
    Вы можете скачивать файлы