Лицензия

MVO

1

1 сезон

Лицензия

Лицензия

13

MVO

1 сезон

Deluxe Edition

pack

Рекомендуем

30

Repack

ВАЖНО

ВАЖНО

Ghostwire

RePack

jed

RePack

fifa19

RePack

RDR2

RePack

NEED FOR SPEED™ PAYBACK

RePack

Кинопоиск HD

 Острые козырьки 6 сезон

6 сезон

FAR CRY 6

RePack

Лицензия

MVO

1

1 сезон

1 сезон

Лицензия

  

Всё везде и сразу / Everything Everywhere All at Once (Дэн Кван, Дэниэл Шайнерт) [2022, Фантастика, комедия, боевик, приключения, фэнтези, BDRip 1080p] DUB [СиПиАй Филмз / CPI Films] +MVO [Jaskier]

Всё везде и сразу через торрент pb.wtf

Раздают: 1 [ 0 KB/s ]
Размер: 18.04 GB | Добавлен: 3 мес. 6 д. назад | Торрент скачан:165 раз
Смотреть онлайн Всё везде и сразу | Скачать   

20-05-2022 11:52 Всё везде и сразу Скачать торрент  

Всё везде и сразу
Everything Everywhere All at Once

Год выпуска: 2022
Страна: США
Выпущено: Hotdog Hands, Ley Line Entertainment, Russo Brothers, Year of The Rat
Жанр: Фантастика, комедия, боевик, приключения, фэнтези
Продолжительность: 02:19:19
Перевод(ы):
#1: Дублированный | СиПиАй Филмз / CPI Films
#2: Профессиональный (многоголосый закадровый) | Jaskier
Субтитры: Русские (Forced, 2 x full), английские

Режиссер: Дэн Кван, Дэниэл Шайнерт

rating

В ролях: Мишель Йео, Джейми Ли Кертис, Стефани Хсю, Ке Хюи Куан, Джеймс Хонг, Одри Василевски, Энтони Молинари, Дженни Слейт, Гарри Шам-мл., Энди Ле

Описание: Представьте, что существуют альтернативные варианты нашей реальности, где вы — совершенно другой человек. В этом лично убеждается Эвелин (Мишель И?ео), получив доступ к воспоминаниям, эмоциям и невероятным способностям других версии? себя. Теперь Эвелин может прожить тысячи жизней и быть кем угодно — известной актрисой, мастером боевых искусств, оперной дивой и даже небесным божеством. Но всем мультивселенным угрожает таинственная сущность, с которой Эвелин предстоит сразиться. Как знать, возможно, заодно она разберётся и с самым страшным злом — своими налогами.

Качество: BDRip 1080p
Формат: MKV

Видео: MPEG-4 AVC, 1920x1038, 16.6 Mbit/s, 23.976 fps
Аудио #01: 48 kHz, AC3, 5.1, 448 Kbps | СиПиАй Филмз / CPI Films | RUS |
Аудио #02: 48 kHz, E-AC3, 5.1, 448 Kbps | СиПиАй Филмз / CPI Films | RUS |
Аудио #03: 48 kHz, AC3, 5.1, 448 Kbps | Профессиональный многоголосый | Jaskier | RUS |
Аудио #04: 48 kHz, AC3, 5.1, 640 Kbps | Оригинал | ENG |
скриншот  скриншот  скриншот  скриншот  скриншот  скриншот  

General
Unique ID : 174580039147807930068314578965842422901 (0x8356E47B735750AFB7A1AEB9CFA8EC75)
Complete name : D:Video1Everything.Everywhere.All.at.Once.2022.BDRip.1080p.seleZen.mkv
Format : Matroska
Format version : Version 4
File size : 18.0 GiB
Duration : 2 h 19 min
Overall bit rate : 18.5 Mb/s
Movie name : Everything Everywhere All At Once 2022 from seleZen
Encoded date : UTC 2022-06-19 03:24:31
Writing application : mkvmerge v59.0.0 ('Shining Star') 64-bit
Writing library : libebml v1.4.2 + libmatroska v1.6.4

Video
ID : 1
Format : AVC
Format/Info : Advanced Video Codec
Format profile : [email protected]
Format settings : CABAC / 4 Ref Frames
Format settings, CABAC : Yes
Format settings, Reference : 4 frames
Codec ID : V_MPEG4/ISO/AVC
Duration : 2 h 19 min
Bit rate : 16.6 Mb/s
Width : 1 920 pixels
Height : 1 038 pixels
Display aspect ratio : 1.85:1
Frame rate mode : Constant
Frame rate : 23.976 (24000/1001) FPS
Color space : YUV
Chroma subsampling : 4:2:0
Bit depth : 8 bits
Scan type : Progressive
Bits/(Pixel*Frame) : 0.346
Stream size : 16.1 GiB (89%)
Writing library : x264 core 157 r2938 2b00a84 [email protected] Mod
Encoding settings : cabac=1 / ref=4 / deblock=1:-3:-3 / analyse=0x3:0x133 / me=umh / subme=10 / psy=1 / psy_rd=1.05:0.00 / mixed_ref=1 / me_range=32 / chroma_me=1 / trellis=2 / 8x8dct=1 / cqm=0 / deadzone=21,11 / fast_pskip=0 / chroma_qp_offset=-2 / threads=12 / lookahead_threads=2 / sliced_threads=0 / nr=0 / decimate=0 / interlaced=0 / bluray_compat=0 / constrained_intra=0 / bframes=8 / b_pyramid=2 / b_adapt=2 / b_bias=0 / direct=3 / weightb=1 / open_gop=0 / weightp=2 / keyint=250 / keyint_min=24 / scenecut=40 / intra_refresh=0 / rc_lookahead=250 / rc=crf / mbtree=0 / crf=16.8 / qcomp=0.60 / qpmin=0 / qpmax=69 / qpstep=4 / vbv_maxrate=62500 / vbv_bufsize=78125 / crf_max=0.0 / nal_hrd=none / filler=0 / ip_ratio=1.30 / pb_ratio=1.20 / aq=3:0.80
Language : English
Default : Yes
Forced : No
Color range : Limited
Color primaries : BT.709
Matrix coefficients : BT.709

Audio #1
ID : 2
Format : AC-3
Format/Info : Audio Coding 3
Commercial name : Dolby Digital
Codec ID : A_AC3
Duration : 2 h 19 min
Bit rate mode : Constant
Bit rate : 448 kb/s
Channel(s) : 6 channels
Channel layout : L R C LFE Ls Rs
Sampling rate : 48.0 kHz
Frame rate : 31.250 FPS (1536 SPF)
Compression mode : Lossy
Stream size : 446 MiB (2%)
Title : Dub
Language : Russian
Service kind : Complete Main
Default : Yes
Forced : Yes

Audio #2
ID : 3
Format : E-AC-3
Format/Info : Enhanced AC-3
Commercial name : Dolby Digital Plus
Codec ID : A_EAC3
Duration : 2 h 19 min
Bit rate mode : Constant
Bit rate : 448 kb/s
Channel(s) : 6 channels
Channel layout : L R C LFE Ls Rs
Sampling rate : 48.0 kHz
Frame rate : 31.250 FPS (1536 SPF)
Compression mode : Lossy
Stream size : 446 MiB (2%)
Title : Dub
Language : Russian
Service kind : Complete Main
Default : No
Forced : No

Audio #3
ID : 4
Format : AC-3
Format/Info : Audio Coding 3
Commercial name : Dolby Digital
Codec ID : A_AC3
Duration : 2 h 19 min
Bit rate mode : Constant
Bit rate : 448 kb/s
Channel(s) : 6 channels
Channel layout : L R C LFE Ls Rs
Sampling rate : 48.0 kHz
Frame rate : 31.250 FPS (1536 SPF)
Compression mode : Lossy
Stream size : 446 MiB (2%)
Title : MVO [Jaskier]
Language : Russian
Service kind : Complete Main
Default : No
Forced : No

Audio #4
ID : 5
Format : AC-3
Format/Info : Audio Coding 3
Commercial name : Dolby Digital
Codec ID : A_AC3
Duration : 2 h 19 min
Bit rate mode : Constant
Bit rate : 640 kb/s
Channel(s) : 6 channels
Channel layout : L R C LFE Ls Rs
Sampling rate : 48.0 kHz
Frame rate : 31.250 FPS (1536 SPF)
Compression mode : Lossy
Stream size : 638 MiB (3%)
Title : Original
Language : English
Service kind : Complete Main
Default : No
Forced : No

Text #1
ID : 6
Format : UTF-8
Codec ID : S_TEXT/UTF8
Codec ID/Info : UTF-8 Plain Text
Duration : 17 min 25 s
Bit rate : 1 b/s
Count of elements : 2
Stream size : 146 Bytes (0%)
Title : Forced
Language : Russian
Default : Yes
Forced : Yes

Text #2
ID : 7
Format : UTF-8
Codec ID : S_TEXT/UTF8
Codec ID/Info : UTF-8 Plain Text
Duration : 2 h 10 min
Bit rate : 80 b/s
Count of elements : 1504
Stream size : 77.5 KiB (0%)
Title : Full [Kinopoisk HD]
Language : Russian
Default : No
Forced : No

Text #3
ID : 8
Format : UTF-8
Codec ID : S_TEXT/UTF8
Codec ID/Info : UTF-8 Plain Text
Duration : 2 h 12 min
Bit rate : 90 b/s
Count of elements : 1871
Stream size : 87.7 KiB (0%)
Title : Full [FOCS]
Language : Russian
Default : No
Forced : No

Text #4
ID : 9
Format : UTF-8
Codec ID : S_TEXT/UTF8
Codec ID/Info : UTF-8 Plain Text
Duration : 2 h 10 min
Bit rate : 44 b/s
Count of elements : 1615
Stream size : 42.8 KiB (0%)
Title : Full
Language : English
Default : No
Forced : No

Text #5
ID : 10
Format : UTF-8
Codec ID : S_TEXT/UTF8
Codec ID/Info : UTF-8 Plain Text
Duration : 2 h 18 min
Bit rate : 61 b/s
Count of elements : 2320
Stream size : 62.6 KiB (0%)
Title : SDH
Language : English
Default : No
Forced : No

Menu
00:00:00.000 : Chapter 01
00:07:05.050 : Chapter 02
00:11:45.705 : Chapter 03
00:24:55.327 : Chapter 04
00:32:52.262 : Chapter 05
00:42:08.109 : Chapter 06
00:52:26.602 : Chapter 07
01:01:51.625 : Chapter 08
01:10:27.974 : Chapter 09
01:17:09.041 : Chapter 10
01:25:09.104 : Chapter 11
01:31:54.509 : Chapter 12
01:39:50.818 : Chapter 13
01:51:25.679 : Chapter 14
01:59:09.142 : Chapter 15
02:10:08.467 : Chapter 16




Скачать Всё везде и сразу через торрент https://i120.fastpic.org/big/2022/0608/3d/cc27b10a8a6b1d0c950953235084553d.jpg Скачать, смотреть онлайн Всё везде и сразу бесплантно в хорошем качестве Описание: Представьте, что существуют альтернативные варианты нашей реальности, где вы — совершенно другой человек. В этом лично убеждается ... 8.5 10 31
Info! Золотая раздача, скачанное не засчитывается.
Торрент: Зарегистрирован [2022-06-19 04:09] · скачан: 165 раз
Статус: √ проверено
Размер: 18.04 GB
Как cкачать? Как скачать Всё везде и сразу через торрент | UTorrent

% Раздел Тема Автор DL S | L
Ultra HD (UHD: 2K, 4K, 8K) [ 16.02 GB ] Всё везде и сразу / Everything Everywhere All at Once | Jaskier | 2160p bober100 Скачать
5 | 0
Фильмы 2022 [DVDrip, WEB-DLRip, HDrip] (DUB, MVO) [ 1.46 GB ] Всё везде и сразу / Everything Everywhere All at Once | DUB | BDRip bober100 Скачать
6 | 0
Фильмы 2022 [DVDrip, WEB-DLRip, HDrip] (DUB, MVO) [ 2.18 GB ] Всё везде и сразу / Everything Everywhere All at Once | DUB | BDRip bober100 Скачать
2 | 0
Фильмы 2022 [DVDrip, WEB-DLRip, HDrip] (DUB, MVO) [ 2.99 GB ] Всё везде и сразу / Everything Everywhere All at Once | Jaskier | DLRip-AVC Lithuania Скачать
7 | 0
Фильмы 2022 [DVDrip, WEB-DLRip, HDrip] (DUB, MVO) [ 1.46 GB ] Всё везде и сразу / Everything Everywhere All at Once | DUB | DLRip bober100 Скачать
4 | 0
Фильмы [HD 720p, 1080p] (Хороший звук DUB, MVO) [ 7.51 GB ] Всё везде и сразу / Everything Everywhere All at Once | Jaskier | 720p bober100 Скачать
4 | 0
T Фильмы 2022 (Звук TS, Cam, VO, DVO) [ 2.75 GB ] Всё везде и сразу / Everything Everywhere All at Once | DUB | DLRip-AVC bober100 Скачать
5 | 0



Последний раз редактировалось: bober100 (2022-06-19 04:12), всего редактировалось 5 раз(а)

28-11-2019 20:33  

Отключить вcю реклaмy на сайте

20-05-2022 15:43 Всё везде и сразу Скачать торрент  

"а ещё и дочка привела свою девушку знакомиться с семьёй."

ну нормально же снимали, чё началось то?

хотя чего это я...
...с 11 апреля при оформлении паспорта жители США смогут выбирать один из трех гендеров, включая небинарный Х
Вот они настоящие люди-Х, без всякой там фантастики.



20-05-2022 15:47 Всё везде и сразу Скачать торрент  

это бред полный. откуда такой рейтинг?



20-05-2022 17:06 Всё везде и сразу Скачать торрент  

orinn писал(а):

Скорее китайский...На первом скрине Джекки Чан!

Еще скажи Семен Слепаков!



20-05-2022 18:59 Всё везде и сразу Скачать торрент  

piska62rus писал(а):

это бред полный. откуда такой рейтинг?

Потому что можно платно посмотреть на говнопоиске . Если рейт там будет настоящий 2 из 10 , кто станет деньги платить ?



21-05-2022 07:12 Всё везде и сразу Скачать торрент  

CTEHbKA писал(а):

piska62rus писал(а):

это бред полный. откуда такой рейтинг?

Потому что можно платно посмотреть на говнопоиске . Если рейт там будет настоящий 2 из 10 , кто станет деньги платить ?

Прям в точку



28-05-2022 15:19 Всё везде и сразу Скачать торрент  

Цитата:

Всё везде и сразу / Everything Everywhere All at Once (Дэн Кван, Дэниэл Шайнерт) [2022, Фантастика, комедия, боевик, приключения, фэнтези, WEB-DL 1080p] MVO [Jaskier]

фильм клевый ,но не длявсех



05-06-2022 08:34 Всё везде и сразу Скачать торрент  

долго ждал, скачал, посмотрел (СПАСИБО РЕЛИЗЕРУ)
и знаете что? Думал, будет клевый кинец типа Люси и Доктора стрейнджа (клевость- мое личное мнение, мне они оч понравились, но реч не о них же ) но азиатский, а в итоге ?
в итоге ворде бы все норм. НО .Фильм - про Семейные ценности исключительно- раз. Причем Ну такие себе ценности- не раскрыто и намешано.Треть фильма- стабильная повесточка которая КРИЧИТ о себе и тыкается в экран со всей дури. (ну кудаже бех этого гендерного тупорылого говнища у фильмов, желающих вылезти в топ)
Но до кучи они навставляли трешака ( чтоб показать крайние степени разных миров ) но не нормального трешака, а такого, который, скорей, рвотные рефлексы вызывает. Я периодически ловил себя на желании вырубить фильм и удалить нафиг эту помойку. Но дотерпел. досмотрел.
УЖОСНННА....
по итогу вместо хорошего фильма получилось очередное повесточное говнище с восточными единоборствами, с ворованными из других фильмов идеями ,нацеленное на детей и вьюношей охотно верящих в толерскость и гендерную европейскую тупую хрень
**для семейного просмотра людей, не заморачивающихся на увиденном - вполне пойдет



22-06-2022 13:43 Всё везде и сразу Скачать торрент  

Как сделать упоротый фильм не для всех? взять 60% автостопа по галактике 20% боев джеки чана 20% интерстеллара и присыпать лесбухами и шутками за 200))



22-06-2022 23:34 Всё везде и сразу Скачать торрент  

чей-чей там фильм на постере?)



    Дорогой пользователь! Огромная просьба, поблагодарите релизера, оцените раздачу и оставьте свои комментарий, если Вы скачали Всё везде и сразу через торрент бесплатно!!
    Комментировать посты могут только пользователи прошедшие не сложную регистрацию
    Показать сообщения:    


    Всё везде и сразу через торрент
    Скачать бесплатно Всё везде и сразу
    Всё везде и сразу скачать торрент
    Всё везде и сразу смотреть онлайн
    Cкачать фильм Всё везде и сразу бесплатно
    Всё везде и сразу скачать торрент в хорошем качестве
    Всё везде и сразу смотреть онлайн бесплатно в хорошем качестве
    Вы не можете начинать темы
    Вы не можете отвечать на сообщения
    Вы не можете редактировать свои сообщения
    Вы не можете удалять свои сообщения
    Вы не можете голосовать в опросах
    Вы не можете прикреплять файлы к сообщениям
    Вы можете скачивать файлы