Всегда рабочее зеркало без VPN и Proxy просто перед .vidak.icu напиши любое слово или цифру, Пример http://8jmu.vidak.icu

Лицензия

MVO

1 сезон

1

1 сезон

iTunes

1 сезон

13

1 сезон

Deluxe

pack

Рекомендуем

Repack

30

ВАЖНО

RePack

MK11

RePack

jed

RePack

fifa19

RePack

RDR2

RePack

NEED FOR SPEED™ PAYBACK

Кинопоиск HD

6 сезон

 Острые козырьки 6 сезон

Все сериалы

все сериалы на PB.wtf

RePack

FAR CRY 5
  
Magnet ссылка

Клетка / The Cage / La Jaula (Хосе Салаверрия) [2018, Фантастика, BDRip 1080p] MVO [IVI] pb.wtf

Клетка через торрент pb.wtf

Раздают: 3 [ 0 KB/s ]
Размер: 6.6 GB | Добавлен: 1 мес. 24 д. назад | Торрент скачан:116 раз
Смотреть онлайн Клетка | Скачать    Ребята, помогите собрать деньги на оплату серверов!!!

21-06-2022 14:37 Клетка Скачать торрент  

Клетка
The Cage / La Jaula

Год выпуска: 2018
Страна: Венесуэла
Студия: Cinestesia Media
Жанр: Фантастика
Продолжительность: 01:22:45
Перевод: Профессиональный (многоголосый) | IVI
Субтитры: Немецкие (Forced)

Режиссер: Хосе Салаверрия

rating

В ролях: Карина Веласкез, Ананда Троконис, Леонидас Урбина

Описание: Действие разворачивается в будущем. Некий высший разум вошёл в контакт с Землёй, и скоро густонаселённая голубая планета практически обезлюдела. В небе безмолвным наблюдателем остался парить инопланетный корабль, который не подавал ни одного признака жизни и не пытался никак взаимодействовать с окружающей средой. В этих условиях, подобно библейским героям, Ева и Фаусто прожили долгие годы, полагая, что они – последние из человеческого рода, оставшиеся на Земле. Чем больше лет проходило, тем меньше и Ева, и Фаусто понимали, в чём смысл их существования на осколках цивилизации. Но их привычную рутину нарушает прибытие загадочной незнакомки, которая оказывается третьим выжившим человеком на Земле. Её зовут Дафна, и скоро девушка полностью меняет жизнь Евы и Фаусто, привнеся в неё неожиданные краски и удовольствия. Постепенно у героев возникает опасный план, который может стоить им жизни.

Качество: BDRip 1080p
Формат: MKV

Видео: 1920x960 (2.000:1), 23.976 fps, MPEG-4 AVC ~ 10 000 Kbps avg, 0.226 bit/pixel
Аудио: AC3, 48 kHz, 6 ch, ~384.00 kbps avg | русский | MVO |
Аудио: AC3, 48 kHz, 6 ch, ~384.00 kbps avg | украинский |
Аудио: AC3, 48 kHz, 6 ch, ~640.00 kbps avg | испанский |
скриншот  скриншот  скриншот  скриншот  скриншот  

Общее
Уникальный идентификатор : 220775198195800965737259702755197225887 (0xA617C1AB2F76BBB2BF9E118C16BC8B9F)
Полное имя : The.Cage.2018.1080p.BluRay.DD.5.1.x264-MegaPeer.mkv
Формат : Matroska
Версия формата : Version 4
Размер файла : 6, 60 Гбайт
Продолжительность : 1 ч. 22 м.
Общий поток : 11, 4 Мбит/сек
Название фильма : Клетка / The Cage / La Jaula (2018) от [email protected]
Дата кодирования : UTC 2022-06-21 13:52:59
Программа кодирования : mkvmerge v15.0.0 ('Duel with the Devil') 64-bit
Библиотека кодирования : libebml v1.3.5 + libmatroska v1.4.5
Обложка : Yes
Attachments : cover.jpg

Видео
Идентификатор : 1
Формат : AVC
Формат/Информация : Advanced Video Codec
Профиль формата : [email protected]
Настройки формата : CABAC / 4 Ref Frames
Параметр CABAC формата : Да
Параметр RefFrames формата : 4 кадра
Идентификатор кодека : V_MPEG4/ISO/AVC
Продолжительность : 1 ч. 22 м.
Битрейт : 10 000 Кбит/сек
Ширина : 1 920 пикселей
Высота : 960 пикселей
Соотношение сторон : 2, 000
Режим частоты кадров : Постоянный
Частота кадров : 23, 976 (24000/1001) кадра/сек
Цветовое пространство : YUV
Субдискретизация насыщенности : 4:2:0
Битовая глубина : 8 бит
Тип развёртки : Прогрессивная
Бит/(Пиксели*Кадры) : 0.226
Размер потока : 5, 78 Гбайт (88%)
Заголовок : [email protected]
Библиотека кодирования : x264 core 161 r3018 db0d417
Настройки программы : cabac=1 / ref=4 / deblock=1:-2:-2 / analyse=0x3:0x113 / me=umh / subme=10 / psy=1 / psy_rd=1.00:0.00 / mixed_ref=1 / me_range=48 / chroma_me=1 / trellis=2 / 8x8dct=1 / cqm=0 / deadzone=21, 11 / fast_pskip=0 / chroma_qp_offset=-2 / threads=12 / lookahead_threads=3 / sliced_threads=0 / nr=0 / decimate=0 / interlaced=0 / bluray_compat=0 / constrained_intra=0 / bframes=13 / b_pyramid=2 / b_adapt=2 / b_bias=0 / direct=3 / weightb=1 / open_gop=0 / weightp=2 / keyint=240 / keyint_min=24 / scenecut=40 / intra_refresh=0 / rc_lookahead=40 / rc=2pass / mbtree=0 / bitrate=10000 / ratetol=1.0 / qcomp=0.60 / qpmin=0 / qpmax=69 / qpstep=4 / cplxblur=20.0 / qblur=0.5 / vbv_maxrate=50000 / vbv_bufsize=62500 / nal_hrd=none / filler=0 / ip_ratio=1.40 / pb_ratio=1.30 / aq=1:1.10
Язык : German
Default : Да
Forced : Нет

Аудио #1
Идентификатор : 2
Формат : AC-3
Формат/Информация : Audio Coding 3
Коммерческое название : Dolby Digital
Идентификатор кодека : A_AC3
Продолжительность : 1 ч. 22 м.
Вид битрейта : Постоянный
Битрейт : 384 Кбит/сек
Каналы : 6 каналов
Channel layout : L R C LFE Ls Rs
Частота : 48, 0 КГц
Частота кадров : 31, 250 кадров/сек (1536 SPF)
Метод сжатия : С потерями
Размер потока : 227 Мбайт (3%)
Заголовок : MVO | IVI
Язык : Russian
Service kind : Complete Main
Default : Да
Forced : Нет

Аудио #2
Идентификатор : 3
Формат : AC-3
Формат/Информация : Audio Coding 3
Коммерческое название : Dolby Digital
Идентификатор кодека : A_AC3
Продолжительность : 1 ч. 22 м.
Вид битрейта : Постоянный
Битрейт : 384 Кбит/сек
Каналы : 6 каналов
Channel layout : L R C LFE Ls Rs
Частота : 48, 0 КГц
Частота кадров : 31, 250 кадров/сек (1536 SPF)
Метод сжатия : С потерями
Размер потока : 227 Мбайт (3%)
Заголовок : IVI
Язык : Ukrainian
Service kind : Complete Main
Default : Нет
Forced : Нет

Аудио #3
Идентификатор : 4
Формат : AC-3
Формат/Информация : Audio Coding 3
Коммерческое название : Dolby Digital
Идентификатор кодека : A_AC3
Продолжительность : 1 ч. 22 м.
Вид битрейта : Постоянный
Битрейт : 640 Кбит/сек
Каналы : 6 каналов
Channel layout : L R C LFE Ls Rs
Частота : 48, 0 КГц
Частота кадров : 31, 250 кадров/сек (1536 SPF)
Метод сжатия : С потерями
Размер потока : 379 Мбайт (6%)
Язык : Spanish
Service kind : Complete Main
Default : Нет
Forced : Нет

Текст
Идентификатор : 5
Формат : UTF-8
Идентификатор кодека : S_TEXT/UTF8
Идентификатор кодека/Информация : UTF-8 Plain Text
Продолжительность : 58 м. 13 с.
Битрейт : 0 бит/сек
Count of elements : 5
Размер потока : 217 байт (0%)
Заголовок : Forced
Язык : German
Default : Нет
Forced : Нет

Меню
00:00:00.000 : :ger: 01
00:09:30.695 : :ger: 02
00:21:01.593 : :ger: 03
00:29:48.619 : :ger: 04
00:40:10.407 : :ger: 05
00:49:37.474 : :ger: 06
00:59:57.594 : :ger: 07
01:09:21.823 : :ger: 08
01:22:44.960 : :ger: 09

pb.wtf



Скачать Клетка через торрент https://i120.fastpic.org/big/2022/0621/2e/6a7716a8c3afe99de8c86e4c801eca2e.jpg Скачать, смотреть онлайн Клетка бесплантно в хорошем качестве Описание: Действие разворачивается в будущем. Некий высший разум вошёл в контакт с Землёй, и скоро густонаселённая голубая планета ... 8.7 10 7
Торрент: Зарегистрирован [2022-06-21 14:37] · скачан: 116 раз
Статус: √ проверено
Размер: 6.6 GB
Как cкачать? Как скачать Клетка через торрент | UTorrent

28-11-2019 20:33  

Отключить вcю реклaмy на сайте

22-06-2022 21:45 Клетка Скачать торрент  

.. - ускоренная перемотка даст представление.. нудно..и прилизано..pb.wtf



    Дорогой пользователь! Огромная просьба, поблагодарите релизера, оцените раздачу и оставьте свои комментарий, если Вы скачали Клетка через торрент бесплатно!
    Комментировать посты могут только пользователи прошедшие не сложную регистрацию
    Показать сообщения:    

    Клетка через торрент
    Скачать бесплатно Клетка
    Клетка скачать торрент
    Клетка смотреть онлайн
    Cкачать фильм Клетка бесплатно
    Клетка скачать торрент в хорошем качестве
    Клетка смотреть онлайн бесплатно в хорошем качестве


    Вы не можете начинать темы
    Вы не можете отвечать на сообщения
    Вы не можете редактировать свои сообщения
    Вы не можете удалять свои сообщения
    Вы не можете голосовать в опросах
    Вы не можете прикреплять файлы к сообщениям
    Вы можете скачивать файлы