Всегда рабочее зеркало без VPN и Proxy просто перед .vidak.icu напиши любое слово или цифру, Пример http://jax3.vidak.icu

Лицензия

MVO

1 сезон

1

1 сезон

iTunes

1 сезон

13

1 сезон

Deluxe

pack

Рекомендуем

Repack

30

ВАЖНО

RePack

MK11

RePack

jed

RePack

fifa19

RePack

RDR2

RePack

NEED FOR SPEED™ PAYBACK

Кинопоиск HD

6 сезон

 Острые козырьки 6 сезон

Все сериалы

все сериалы на PB.wtf

RePack

FAR CRY 5
  
Magnet ссылка

Доктор Стрэндж: В мультивселенной безумия / Doctor Strange in the Multiverse of Madness (Сэм Рэйми) [2022 г., Фантастика, фэнтези, боевик, приключения, ужасы, WEB-DLRip 720p / 60 FPS, Дубляж] от R.G. HD-Films pb.wtf

Доктор Стрэндж: В мультивселенной безумия через торрент pb.wtf

Раздают: 6 [ 690 KB/s ]
Размер: 4.94 GB | Добавлен: 5 д. назад | Торрент скачан:38 раз
Смотреть онлайн Доктор Стрэндж: В мультивселенной безумия | Скачать    Ребята, помогите собрать деньги на оплату серверов!!!

22-06-2022 19:18 Доктор Стрэндж: В мультивселенной безумия Скачать торрент  

Доктор Стрэндж: В мультивселенной безумия / Doctor Strange in the Multiverse of Madness
Год выпуска: 2022
Страна: США
Жанр: Фантастика, фэнтези, боевик, приключения, ужасы
Продолжительность: 02:06:23
Перевод: Дублированный | Невафильм
Субтитры: русские, английские

Режиссер: Сэм Рэйми

rating

В ролях: Бенедикт Камбербэтч, Элизабет Олсен, Чиветел Эджиофор, Бенедикт Вонг, Сочил Гомес, Майкл Стулбарг, Рэйчел МакАдамс, Патрик Стюарт, Брюс Кэмпбелл, Джулиан Хиллиард

Описание: Продолжение истории величайшего мага Земли доктора Стивена Стрэнджа. С помощью старых и новых мистических союзников Стрэндж отправляется в мультивселенную, чтобы сразиться с новым таинственным противником.

Качество: WEB-DLRip 720p / 60 FPS
Формат: MKV
Видео кодек: H.264
Аудио кодек: AC3
Видео: x264, 1280 x 536 ( 2,40:1 ), 5203 kbps, 60,000 fps, ( 0.126 bpp)
Аудио#1: Русский, AC-3, 48.0 KHz, 6 ch, 384 Kbps Dub (Невафильм)
Релиз от: Автор рипа: slaventi-69
x264 [info]: profile High, level 4.1
x264 [info]: frame I:2316 Avg QP:15.15 size: 81747
x264 [info]: frame P:102783 Avg QP:16.23 size: 24530
x264 [info]: frame B:349917 Avg QP:18.88 size: 6350
x264 [info]: consecutive B-frames: 1.8% 1.8% 6.1% 23.0% 42.4% 24.9%


Общее
Уникальный идентификатор : 296409837237642707020415380190806365267 (0xDEFE754850B086E4B099CA41E16F5453)
Полное имя : G:\60 FPS\Doctor.Strange.in.the.Multiverse.of.Madness.(2022).WEB-DLRip.720p.(60 Fps).mkv
Формат : Matroska
Версия формата : Version 4
Размер файла : 4,94 Гбайт
Продолжительность : 2 ч. 6 м.
Общий поток : 5591 Кбит/сек
Название фильма : Доктор Стрэндж: В мультивселенной безумия / Doctor Strange in the Multiverse of Madness (2022) WEB-DLRip 720p (60 Fps)
Дата кодирования : UTC 2022-08-13 09:16:37
Программа кодирования : mkvmerge v69.0.0 ('Day And Age') 64-bit
Библиотека кодирования : libebml v1.4.2 + libmatroska v1.6.4

Видео
Идентификатор : 1
Формат : AVC
Формат/Информация : Advanced Video Codec
Профиль формата : [email protected]
Настройки формата : CABAC / 9 Ref Frames
Параметр CABAC формата : Да
Параметр RefFrames формата : 9 кадров
Идентификатор кодека : V_MPEG4/ISO/AVC
Продолжительность : 2 ч. 6 м.
Битрейт : 5203 Кбит/сек
Ширина : 1280 пикселей
Высота : 536 пикселей
Соотношение сторон : 2,40:1
Режим частоты кадров : Постоянный
Частота кадров : 60,000 кадров/сек
Цветовое пространство : YUV
Субдискретизация насыщенности : 4:2:0
Битовая глубина : 8 бит
Тип развёртки : Прогрессивная
Бит/(Пиксели*Кадры) : 0.126
Размер потока : 4,59 Гбайт (93%)
Заголовок : slaventi-69 ( R.G. HD-Films | 60 fps )
Библиотека кодирования : x264 core 130 r2273 b3065e6
Настройки программы : cabac=1 / ref=9 / deblock=1:-3:-3 / analyse=0x3:0x133 / me=umh / subme=9 / psy=1 / psy_rd=1.00:0.00 / mixed_ref=1 / me_range=32 / chroma_me=1 / trellis=2 / 8x8dct=1 / cqm=0 / deadzone=21,11 / fast_pskip=0 / chroma_qp_offset=-2 / threads=8 / lookahead_threads=4 / sliced_threads=0 / nr=0 / decimate=1 / interlaced=0 / bluray_compat=0 / constrained_intra=0 / bframes=5 / b_pyramid=2 / b_adapt=2 / b_bias=0 / direct=1 / weightb=1 / open_gop=0 / weightp=2 / keyint=600 / keyint_min=23 / scenecut=40 / intra_refresh=0 / rc=crf / mbtree=0 / crf=15.3 / qcomp=0.60 / qpmin=0 / qpmax=69 / qpstep=4 / ip_ratio=1.40 / pb_ratio=1.30 / aq=1:1.00
Язык : English
Default : Да
Forced : Нет

Аудио
Идентификатор : 2
Формат : AC-3
Формат/Информация : Audio Coding 3
Коммерческое название : Dolby Digital
Идентификатор кодека : A_AC3
Продолжительность : 2 ч. 6 м.
Вид битрейта : Постоянный
Битрейт : 384 Кбит/сек
Каналы : 6 каналов
Channel layout : L R C LFE Ls Rs
Частота : 48,0 КГц
Частота кадров : 31,250 кадров/сек (1536 SPF)
Битовая глубина : 16 бит
Метод сжатия : С потерями
Размер потока : 347 Мбайт (7%)
Заголовок : Dub (Невафильм)
Язык : Russian
ServiceKind/String : Complete Main
Default : Да
Forced : Нет

Текст #1
Идентификатор : 3
Формат : UTF-8
Идентификатор кодека : S_TEXT/UTF8
Идентификатор кодека/Информация : UTF-8 Plain Text
Продолжительность : 2 ч. 6 м.
Битрейт : 67 бит/сек
ElementCount : 1254
Размер потока : 62,4 Кбайт (0%)
Язык : Russian
Default : Да
Forced : Нет

Текст #2
Идентификатор : 4
Формат : UTF-8
Идентификатор кодека : S_TEXT/UTF8
Идентификатор кодека/Информация : UTF-8 Plain Text
Продолжительность : 2 ч. 5 м.
Битрейт : 37 бит/сек
ElementCount : 1249
Размер потока : 34,1 Кбайт (0%)
Язык : English
Default : Нет
Forced : Нет

Просьба к переливающим на другие сайты, в оформлении указывайте пожалуйста авторство группы R.G. HD-Films pb.wtf



Скачать Доктор Стрэндж: В мультивселенной безумия через торрент https://i.postimg.cc/x1rZ1h8m/cover.jpg Скачать, смотреть онлайн Доктор Стрэндж: В мультивселенной безумия бесплантно в хорошем качестве Описание: Продолжение истории величайшего мага Земли доктора Стивена Стрэнджа. С помощью старых и новых мистических союзников Стрэндж ... 9 10 26
Торрент: Зарегистрирован [2022-08-13 09:34] · скачан: 38 раз
Статус: √ проверено
Размер: 4.94 GB
Как cкачать? Как скачать Доктор Стрэндж: В мультивселенной безумия через торрент | UTorrent

% Раздел Тема Автор DL S | L
3D Фильмы [ 7.39 GB ] Доктор Стрэндж: В мультивселенной безумия в 3D / Doctor Strange in the Multiverse of Madness in 3D [2022 3D BDRip 1080p ] Анаглиф от R.G. HD-Films slaventi-69 Скачать
2 | 0
Фильмы (HD 720p, 1080p) (48-60 fps) [ 6.01 GB ] Доктор Стрэндж: В мультивселенной безумия / Doctor Strange in the Multiverse of Madness [2022 WEB-DLRip 720p / 60 FPS ] IMAX от R.G. HD-Films slaventi-69 Скачать
15 | 1


Последний раз редактировалось: slaventi-69 (2022-08-13 09:34), всего редактировалось 1 раз

28-11-2019 20:33  

Отключить вcю реклaмy на сайте

22-06-2022 19:35 Доктор Стрэндж: В мультивселенной безумия Скачать торрент  

Есть инфа когда дубляж?pb.wtf



22-06-2022 23:32 Доктор Стрэндж: В мультивселенной безумия Скачать торрент  

То Дамблдор пед, то тут 2 мамы) Садомия + фильм полное гpb.wtf



23-06-2022 07:02 Доктор Стрэндж: В мультивселенной безумия Скачать торрент  

Karlos писал(а):

То Дамблдор пед, то тут 2 мамы) Садомия + фильм полное г

Это всё дело вкуса. Он либо есть, либо его нет. А вообще если твоего мнения не спрашивали, то оставь его при себе.pb.wtf



23-06-2022 09:09 Доктор Стрэндж: В мультивселенной безумия Скачать торрент  

нормальный фильм, по мне дак лучшая часть доктораpb.wtf



23-06-2022 09:56 Доктор Стрэндж: В мультивселенной безумия Скачать торрент  

Ёлки-палки, в одной раздаче есть сабы, но нет английской дорожки, во второй раздаче всё с точностью наоборот =)pb.wtf



23-06-2022 14:45 Доктор Стрэндж: В мультивселенной безумия Скачать торрент  

slaventi-69 писал(а):

TheFernFlower писал(а):

Ёлки-палки, в одной раздаче есть сабы, но нет английской дорожки, во второй раздаче всё с точностью наоборот =)

Вторую звуковую дорожку в основном делаю по просьбе (увеличение размера файла).

Я без претензий, если что. Большое спасибо Вам за труды.pb.wtf



23-06-2022 20:19 Доктор Стрэндж: В мультивселенной безумия Скачать торрент  

грустно наблюдать, как планка качества Марвел падает все ниже...
глупые, нелепые, порой абсурдные диалоги и ситуации перемежаются красивым графоном. Если раньше как то пытались аппелировать к важному, то сейчас просто затрагивают самые примитивные поверхностные вещи, обильно приправляя все это повесточкой.
Я не фоб ( в целом) , мне нет дела до того будут негры или лесбиянки в фильме, но только если это не будет выпячиваться и заявлять о себе. Тоесть совершенно не к месту а лишь для того, что необходимо для рейтингов...
Падает планка. падает....
Релизеру Большое Спасибо!!!pb.wtf



13-08-2022 09:35 Доктор Стрэндж: В мультивселенной безумия Скачать торрент  

Замена озвучки на Дубляж. Желающие перекачайте торрент файл.pb.wtf



    Дорогой пользователь! Огромная просьба, поблагодарите релизера, оцените раздачу и оставьте свои комментарий, если Вы скачали Доктор Стрэндж: В мультивселенной безумия через торрент бесплатно!
    Комментировать посты могут только пользователи прошедшие не сложную регистрацию
    Показать сообщения:    

    Доктор Стрэндж: В мультивселенной безумия через торрент
    Скачать бесплатно Доктор Стрэндж: В мультивселенной безумия
    Доктор Стрэндж: В мультивселенной безумия скачать торрент
    Доктор Стрэндж: В мультивселенной безумия смотреть онлайн
    Cкачать фильм Доктор Стрэндж: В мультивселенной безумия бесплатно
    Доктор Стрэндж: В мультивселенной безумия скачать торрент в хорошем качестве
    Доктор Стрэндж: В мультивселенной безумия смотреть онлайн бесплатно в хорошем качестве


    Вы не можете начинать темы
    Вы не можете отвечать на сообщения
    Вы не можете редактировать свои сообщения
    Вы не можете удалять свои сообщения
    Вы не можете голосовать в опросах
    Вы не можете прикреплять файлы к сообщениям
    Вы можете скачивать файлы