Всегда рабочее зеркало без VPN и Proxy просто перед .vidak.icu напиши любое слово или цифру, Пример http://ypa2.vidak.icu

Лицензия

MVO

1 сезон

1

1 сезон

iTunes

1 сезон

13

1 сезон

Deluxe

pack

Рекомендуем

Repack

30

ВАЖНО

RePack

MK11

RePack

jed

RePack

fifa19

RePack

RDR2

RePack

NEED FOR SPEED™ PAYBACK

Кинопоиск HD

6 сезон

 Острые козырьки 6 сезон

Все сериалы

все сериалы на PB.wtf

RePack

FAR CRY 5
  
Magnet ссылка

Жиза / Сезон: 1 / Серии: 1-8 из 8 + Фильм о фильме (Арсений Робак) [2022, Драма, приключения, WEBRip 1080p] pb.wtf

Жиза через торрент pb.wtf

Раздают: 2 [ 0 KB/s ]
Размер: 15.31 GB | Добавлен: 4 д. назад | Торрент скачан:11 раз
Смотреть онлайн Жиза | Скачать    Ребята, помогите собрать деньги на оплату серверов!!!

23-06-2022 04:04 Жиза Скачать торрент  

Жиза
Год выпуска: 2022
Страна: Россия
Жанр: Драма, приключения
Продолжительность: ~ 00:46:00 серия
Перевод: Не требуется
Субтитры: отсутствуют

Режиссер: Арсений Робак



В ролях: Максим Сапрыкин, Валентина Ляпина, Никита Кологривый, Александр Робак, Екатерина Карташова, Никита Зинченко, Арсений Робак, Александр Новиков (X), Роман Клепченко, Даниил Лебедев, Карина Александрова (II), Дмитрий Козельский, Григорий Багров, Илья Хвостиков, Джемал Тетруашвили, Александра Мошкова, Андрей Мясников (II), Марина Дровосекова, Михаил Тарабукин, Константин Адаев, Александра Богданова, Самад Мансуров, Никита Патуев, Виктор Немец, Наталья Тетенова, Дарья Белоусова (II), Валентина Муравская, Даниил Лебедев (II), Григорий Верник

Описание: Доведенные до отчаяния 15-летние детдомовцы — самая красивая девочка класса Полина и безответно влюбленный в нее Якут — решают сбежать из маленького провинциального городка, украв деньги главаря местной подростковой банды. Но побег полон смертельных опасностей. Справятся ли ребята и что ждет их в новой жизни?

Качество: WEBRip 1080p
Формат: MKV

Видео: MPEG4 AVC Video, H264, 16:9, 1920x1080, 25 fps, ~6480 kbps, 0.125 bit/pixel
Аудио: 48.0 kHz, AC3 Dolby Digital, 2/0 (L,R) ch, ~ 192 kbps

General
Unique ID : 190237820303472326650221507756701974728 (0x8F1E78B21C230B58773328F084DF00C8)
Complete name : D:\Жиза S01 WEB-DL 1080p\Жиза S01E02 WEB-DL 1080p.mkv
Format : Matroska
Format version : Version 4 / Version 2
File size : 1.71 GiB
Duration : 37 min 15 s
Overall bit rate : 6 578 kb/s
Writing application : Lavf58.12.100
Writing library : Lavf58.12.100
ErrorDetectionType : Per level 1

Video
ID : 1
Format : AVC
Format/Info : Advanced Video Codec
Format profile : [email protected]
Format settings : CABAC / 4 Ref Frames
Format settings, CABAC : Yes
Format settings, ReFrames : 4 frames
Codec ID : V_MPEG4/ISO/AVC
Duration : 37 min 15 s
Bit rate : 6 480 kb/s
Width : 1 920 pixels
Height : 1 080 pixels
Display aspect ratio : 16:9
Frame rate mode : Constant
Frame rate : 25.000 FPS
Color space : YUV
Chroma subsampling : 4:2:0
Bit depth : 8 bits
Scan type : Progressive
Bits/(Pixel*Frame) : 0.125
Stream size : 1.63 GiB (95%)
Writing library : x264 core 161
Encoding settings : cabac=1 / ref=2 / deblock=1:0:0 / analyse=0x3:0x113 / me=hex / subme=6 / psy=1 / psy_rd=1.00:0.00 / mixed_ref=1 / me_range=16 / chroma_me=1 / trellis=1 / 8x8dct=1 / cqm=0 / deadzone=21,11 / fast_pskip=1 / chroma_qp_offset=-2 / threads=12 / lookahead_threads=2 / sliced_threads=0 / nr=0 / decimate=1 / interlaced=0 / bluray_compat=0 / constrained_intra=0 / bframes=3 / b_pyramid=2 / b_adapt=1 / b_bias=0 / direct=1 / weightb=1 / open_gop=0 / weightp=1 / keyint=250 / keyint_min=25 / scenecut=40 / intra_refresh=0 / rc_lookahead=30 / rc=abr / mbtree=1 / bitrate=6480 / ratetol=1.0 / qcomp=0.60 / qpmin=0 / qpmax=69 / qpstep=4 / vbv_maxrate=7776 / vbv_bufsize=15552 / nal_hrd=none / filler=0 / ip_ratio=1.40 / aq=1:1.00
Default : Yes
Forced : No
Color range : Limited
Color primaries : BT.709
Transfer characteristics : BT.709
Matrix coefficients : BT.709

Audio
ID : 2
Format : AC-3
Format/Info : Audio Coding 3
Codec ID : A_AC3
Duration : 37 min 15 s
Bit rate mode : Constant
Bit rate : 192 kb/s
Channel(s) : 2 channels
Channel positions : Front: L R
Sampling rate : 48.0 kHz
Frame rate : 31.250 FPS (1536 SPF)
Bit depth : 16 bits
Compression mode : Lossy
Delay relative to video : -85 ms
Stream size : 51.2 MiB (3%)
Service kind : Complete Main
Default : Yes
Forced : No

Внимание! Раздача ведётся путём добавления новых серий; при каждом добавлении создаётся новый торрент. Чтобы начать докачку новой серии, пользователям необходимо сделать следующее:
(1) остановить скачивание,
(2) удалить старый торрент у себя из клиента (старые серии удалять не надо),
(3) скачать новый торрент и запустить его у себя в клиенте вместо старого, при этом указать клиенту путь в старую папку куда и должно происходить скачивание новых серий.

Ваш клиент при этом должен произвести хеширование (проверку) старой папки (если не производит сам - помогите ему сделать это), и будет докачивать только те серии которых у вас ещё нет. Старые серии при этом не удаляются, а продолжают раздаваться!

Eсли вы уже удалили старые серии, то предотвратить повторную закачку старых серий можно, отжав галочку в соответсвующих местах при запуске нового торрента. По возможности, желательно не удалять старые серии как можно дольше чтобы релизёр не столько продолжал раздавать старые серии, а смог сконцентрироваться на новых.
pb.wtf



Скачать Жиза через торрент https://i120.fastpic.org/big/2022/0623/38/0e4518e677b800407ea8f5fb7d58a638.jpg Скачать, смотреть онлайн Жиза бесплантно в хорошем качестве Описание: Доведенные до отчаяния 15-летние детдомовцы — самая красивая девочка класса Полина и безответно влюбленный в нее Якут — решают ... 4.5 10 19
Торрент: Зарегистрирован [2022-08-12 05:33] · скачан: 11 раз
Статус: √ проверено
Размер: 15.31 GB
Как cкачать? Как скачать Жиза через торрент | UTorrent

28-11-2019 20:33  

Отключить вcю реклaмy на сайте

12-08-2022 12:45 Жиза Скачать торрент  

концовку нифига не понялpb.wtf



    Дорогой пользователь! Огромная просьба, поблагодарите релизера, оцените раздачу и оставьте свои комментарий, если Вы скачали Жиза через торрент бесплатно!
    Комментировать посты могут только пользователи прошедшие не сложную регистрацию
    Показать сообщения:    

    Жиза через торрент
    Скачать бесплатно Жиза
    Жиза скачать торрент
    Жиза смотреть онлайн
    Cкачать фильм Жиза бесплатно
    Жиза скачать торрент в хорошем качестве
    Жиза смотреть онлайн бесплатно в хорошем качестве


    Вы не можете начинать темы
    Вы не можете отвечать на сообщения
    Вы не можете редактировать свои сообщения
    Вы не можете удалять свои сообщения
    Вы не можете голосовать в опросах
    Вы не можете прикреплять файлы к сообщениям
    Вы можете скачивать файлы