Всегда рабочее зеркало без VPN и Proxy просто перед .vidak.icu напиши любое слово или цифру, Пример http://foa8.vidak.icu

Лицензия

MVO

1 сезон

1

1 сезон

iTunes

1 сезон

13

1 сезон

Deluxe

pack

Рекомендуем

Repack

30

ВАЖНО

RePack

MK11

RePack

jed

RePack

fifa19

RePack

RDR2

RePack

NEED FOR SPEED™ PAYBACK

Кинопоиск HD

6 сезон

 Острые козырьки 6 сезон

Все сериалы

все сериалы на PB.wtf

RePack

FAR CRY 5
  
Magnet ссылка

Любовь по вызову / Good Luck to You, Leo Grande (Софи Хайд) [2022, Комедия, драма, WEB-DL 1080p] MVO pb.wtf

Любовь по вызову через торрент pb.wtf

Раздают: 8 [ 181 KB/s ]
Размер: 5.29 GB | Добавлен: 1 мес. 25 д. назад | Торрент скачан:221 раз
Смотреть онлайн Любовь по вызову | Скачать    Ребята, помогите собрать деньги на оплату серверов!!!

21-06-2022 09:14 Любовь по вызову Скачать торрент  

Любовь по вызову
Good Luck to You, Leo Grande

Год выпуска: 2022
Страна: Великобритания
Жанр: Комедия, драма
Продолжительность: 01:37:04
Перевод: Профессиональный (многоголосый)
Субтитры: Aнглийские

Режиссер: Софи Хайд

rating

В ролях: Эмма Томпсон, Дэрил МакКормак, Изабелла Лафлэнд, Лес Мабалека, Ленни Беар, Карина Лопес, Шарлотта Уэр

Описание: Через два года после смерти мужа 60-летняя Нэнси Стоукс решает попробовать то, о чём мечтала многие годы — испытать удовольствие от секса. Она снимает номер в отеле и приглашает парня по вызову.

Качество: WEB-DL 1080p
Формат: MKV

Видео: MPEG-4 AVC, 7031 Кбит/с, 1920x960
Аудио #1: AAC, 2 ch, 124 Кбит/с | RUS |
Аудио #2: E-AC3, 6 ch, 640 Кбит/с | ENG |
скриншот  скриншот  скриншот  скриншот  

General
Unique ID : 334045898162771837100532751430048076811 (0xFB4EE659C2C3E9023E26AA45D4C8D40B)
Complete name : E:TorrentsGood.Luck.to.You.Leo.Grande.2022.1080p.AMZN_от New-Team.mkv
Format : Matroska
Format version : Version 4
File size : 5.29 GiB
Duration : 1 h 37 min
Overall bit rate : 7 797 kb/s
Movie name : Good.Luck.to.You.Leo.Grande.2022.1080p.AMZN_от New-Team
Encoded date : UTC 2022-06-21 07:51:21
Writing application : mkvmerge v59.0.0 ('Shining Star') 64-bit
Writing library : libebml v1.4.2 + libmatroska v1.6.4

Video
ID : 1
Format : AVC
Format/Info : Advanced Video Codec
Format profile : [email protected]
Format settings : CABAC / 4 Ref Frames
Format settings, CABAC : Yes
Format settings, Reference : 4 frames
Codec ID : V_MPEG4/ISO/AVC
Duration : 1 h 37 min
Bit rate mode : Constant
Bit rate : 7 031 kb/s
Nominal bit rate : 10 000 kb/s
Width : 1 920 pixels
Height : 960 pixels
Display aspect ratio : 2.000
Frame rate mode : Constant
Frame rate : 23.976 (24000/1001) FPS
Color space : YUV
Chroma subsampling : 4:2:0
Bit depth : 8 bits
Scan type : Progressive
Bits/(Pixel*Frame) : 0.159
Stream size : 4.77 GiB (90%)
Language : English
Default : Yes
Forced : No
Color range : Limited
Color primaries : BT.709
Transfer characteristics : BT.709
Matrix coefficients : BT.709

Audio #1
ID : 2
Format : AAC LC
Format/Info : Advanced Audio Codec Low Complexity
Codec ID : A_AAC-2
Duration : 1 h 37 min
Bit rate : 123 kb/s
Channel(s) : 2 channels
Channel layout : L R
Sampling rate : 48.0 kHz
Frame rate : 46.875 FPS (1024 SPF)
Compression mode : Lossy
Stream size : 85.7 MiB (2%)
Language : Russian
Default : Yes
Forced : No

Audio #2
ID : 3
Format : E-AC-3
Format/Info : Enhanced AC-3
Commercial name : Dolby Digital Plus
Codec ID : A_EAC3
Duration : 1 h 37 min
Bit rate mode : Constant
Bit rate : 640 kb/s
Channel(s) : 6 channels
Channel layout : L R C LFE Ls Rs
Sampling rate : 48.0 kHz
Frame rate : 31.250 FPS (1536 SPF)
Compression mode : Lossy
Stream size : 444 MiB (8%)
Language : English
Service kind : Complete Main
Default : No
Forced : No

Text #1
ID : 4
Format : UTF-8
Codec ID : S_TEXT/UTF8
Codec ID/Info : UTF-8 Plain Text
Duration : 1 h 36 min
Bit rate : 79 b/s
Count of elements : 1705
Stream size : 56.3 KiB (0%)
Title : British SDH
Language : English
Default : No
Forced : No

Text #2
ID : 5
Format : UTF-8
Codec ID : S_TEXT/UTF8
Codec ID/Info : UTF-8 Plain Text
Duration : 1 h 36 min
Bit rate : 77 b/s
Count of elements : 1621
Stream size : 54.3 KiB (0%)
Title : British
Language : English
Default : No
Forced : No

pb.wtf



Скачать Любовь по вызову через торрент https://i120.fastpic.org/big/2022/0621/72/a5e2648710774251090e4d61d478cf72.jpg Скачать, смотреть онлайн Любовь по вызову бесплантно в хорошем качестве Описание: Через два года после смерти мужа 60-летняя Нэнси Стоукс решает попробовать то, о чём мечтала многие годы — испытать удовольствие ... 10 10 8
Торрент: Зарегистрирован [2022-06-21 09:14] · скачан: 221 раз
Статус: T временная
Размер: 5.29 GB
Как cкачать? Как скачать Любовь по вызову через торрент | UTorrent

28-11-2019 20:33  

Отключить вcю реклaмy на сайте

21-06-2022 13:39 Любовь по вызову Скачать торрент  

судя по всему ничего не вышлоpb.wtf



23-06-2022 04:14 Любовь по вызову Скачать торрент  

Согласенpb.wtf



    Дорогой пользователь! Огромная просьба, поблагодарите релизера, оцените раздачу и оставьте свои комментарий, если Вы скачали Любовь по вызову через торрент бесплатно!
    Комментировать посты могут только пользователи прошедшие не сложную регистрацию
    Показать сообщения:    

    Любовь по вызову через торрент
    Скачать бесплатно Любовь по вызову
    Любовь по вызову скачать торрент
    Любовь по вызову смотреть онлайн
    Cкачать фильм Любовь по вызову бесплатно
    Любовь по вызову скачать торрент в хорошем качестве
    Любовь по вызову смотреть онлайн бесплатно в хорошем качестве


    Вы не можете начинать темы
    Вы не можете отвечать на сообщения
    Вы не можете редактировать свои сообщения
    Вы не можете удалять свои сообщения
    Вы не можете голосовать в опросах
    Вы не можете прикреплять файлы к сообщениям
    Вы можете скачивать файлы