Всегда рабочее зеркало без VPN и Proxy просто перед .vidak.icu напиши любое слово или цифру, Пример http://a9p9.vidak.icu

MVO

MVO

1 сезон

1

1 сезон

iTunes

1 сезон

13

1 сезон

Deluxe

pack

Рекомендуем

Repack

30

ВАЖНО

RePack

MK11

RePack

jed

RePack

fifa19

RePack

RDR2

RePack

NEED FOR SPEED™ PAYBACK

Кинопоиск HD

6 сезон

 Острые козырьки 6 сезон

Все сериалы

все сериалы на PB.wtf

RePack

FAR CRY 5
  
Magnet ссылка

Фантастические твари: Тайны Дамблдора / Fantastic Beasts: The Secrets of Dumbledore (Дэвид Йейтс) [2022, Фэнтези, приключения, семейный, BDRip 720p] DUB (rus, ukr) [Лицензия / Официальный дубляж] pb.wtf

Фантастические твари: Тайны Дамблдора через торрент pb.wtf

Раздают: 7 [ 88 KB/s ]
Размер: 7.74 GB | Добавлен: 1 мес. 14 д. назад | Торрент скачан:176 раз
Смотреть онлайн Фантастические твари: Тайны Дамблдора | Скачать    Ребята, помогите собрать деньги на оплату серверов!!!

23-06-2022 07:57 Фантастические твари: Тайны Дамблдора Скачать торрент  

Фантастические твари: Тайны Дамблдора
Fantastic Beasts: The Secrets of Dumbledore

Год выпуска: 2022
Страна: Великобритания, США
Выпущено: Heyday Films, Warner Bros.
Жанр: Фэнтези, приключения, семейный
Продолжительность: 02:22:39
Перевод(ы): Дублированный | Лицензия ***Официальный дубляж.
Субтитры: Русские (Forced, full), украинские (Forced), английские

Режиссер: Дэвид Йейтс

rating

В ролях: Эдди Редмэйн, Джуд Лоу, Эзра Миллер, Дэн Фоглер, Элисон Судол, Каллум Тернер, Джессика Уильямс, Кэтрин Уотерстон, Мадс Миккельсен, Оливер Мазуччи

Описание: Профессор Альбус Дамблдор узнает, что могущественный темный волшебник Геллерт Грин-де-Вальд планирует захватить Влacть над миром. Понимая, что не сможет остановить его в одиночку, Дамблдор просит магозоолога Ньюта Саламандера возглавить команду из выдающихся волшебников и одного отважного магла-пекаря. Им предстоят невероятно опасные приключения, встреча со старыми и укрощение новых магических существ и борьба со сторонниками Грин-де-Вальда, которых становится все больше. Но какая роль в этой миссии уготована самому Дамблдору?

Качество: BDRip 720p
Формат: MKV

Видео: MPEG-4 AVC, 1280x534, 6550 Kbit/s, 23.976 fps
Аудио #01: 48 kHz, AC3, 5.1, 384 Kbps | Дублированный | Лицензия | RUS |
Аудио #02: 48 kHz, AC3, 5.1, 384 Kbps | Дублированный | Лицензия | UKR |
Аудио #03: 48 kHz, AC3, 5.1, 448 Kbps | Оригинал | ENG |
скриншот  скриншот  скриншот  скриншот  скриншот  скриншот  

General
Unique ID : 156035127252041064713991719500458903568 (0x756345BBAF64F324E4EF0CCD64324810)
Complete name : D:\Video1\Fantastic.Beasts.The.Secrets.of.Dumbledore.2022.D.BDRip.720p.seleZen.mkv
Format : Matroska
Format version : Version 4
File size : 7.74 GiB
Duration : 2 h 23 min
Overall bit rate : 7 748 kb/s
Movie name : Fantastic Beasts The.Secrets of Dumbledore 2022 from seleZen
Encoded date : UTC 2022-06-23 07:43:40
Writing application : mkvmerge v59.0.0 ('Shining Star') 64-bit
Writing library : libebml v1.4.2 + libmatroska v1.6.4

Video
ID : 1
Format : AVC
Format/Info : Advanced Video Codec
Format profile : [email protected]
Format settings : CABAC / 9 Ref Frames
Format settings, CABAC : Yes
Format settings, Reference : 9 frames
Codec ID : V_MPEG4/ISO/AVC
Duration : 2 h 22 min
Bit rate : 6 550 kb/s
Width : 1 280 pixels
Height : 534 pixels
Display aspect ratio : 2.40:1
Frame rate mode : Constant
Frame rate : 23.976 (24000/1001) FPS
Color space : YUV
Chroma subsampling : 4:2:0
Bit depth : 8 bits
Scan type : Progressive
Bits/(Pixel*Frame) : 0.400
Stream size : 6.53 GiB (84%)
Title : PSiG
Writing library : x264 core 150 r2833kMod df79067
Encoding settings : cabac=1 / ref=9 / deblock=1:-3:-3 / analyse=0x3:0x133 / me=umh / subme=10 / psy=1 / fade_compensate=0.00 / psy_rd=1.00:0.00 / mixed_ref=1 / me_range=32 / chroma_me=1 / trellis=2 / 8x8dct=1 / cqm=0 / deadzone=21,11 / fast_pskip=0 / chroma_qp_offset=-2 / threads=17 / lookahead_threads=4 / sliced_threads=0 / nr=0 / decimate=0 / interlaced=0 / bluray_compat=0 / constrained_intra=0 / bframes=11 / b_pyramid=2 / b_adapt=1 / b_bias=0 / direct=3 / weightb=1 / open_gop=0 / weightp=2 / keyint=250 / keyint_min=23 / scenecut=40 / intra_refresh=0 / rc=2pass / mbtree=0 / bitrate=6550 / ratetol=1.0 / qcomp=0.60 / qpmin=0 / qpmax=69 / qpstep=4 / cplxblur=20.0 / qblur=0.5 / ip_ratio=1.40 / pb_ratio=1.30 / aq=3:0.80
Language : English
Default : Yes
Forced : No

Audio #1
ID : 2
Format : AC-3
Format/Info : Audio Coding 3
Commercial name : Dolby Digital
Codec ID : A_AC3
Duration : 2 h 23 min
Bit rate mode : Constant
Bit rate : 384 kb/s
Channel(s) : 6 channels
Channel layout : L R C LFE Ls Rs
Sampling rate : 48.0 kHz
Frame rate : 31.250 FPS (1536 SPF)
Compression mode : Lossy
Stream size : 393 MiB (5%)
Title : Dub [License]
Language : Russian
Service kind : Complete Main
Default : Yes
Forced : Yes

Audio #2
ID : 3
Format : AC-3
Format/Info : Audio Coding 3
Commercial name : Dolby Digital
Codec ID : A_AC3
Duration : 2 h 22 min
Bit rate mode : Constant
Bit rate : 384 kb/s
Channel(s) : 6 channels
Channel layout : L R C LFE Ls Rs
Sampling rate : 48.0 kHz
Frame rate : 31.250 FPS (1536 SPF)
Compression mode : Lossy
Stream size : 392 MiB (5%)
Title : Dub [License]
Language : Ukrainian
Service kind : Complete Main
Default : No
Forced : No

Audio #3
ID : 4
Format : AC-3
Format/Info : Audio Coding 3
Commercial name : Dolby Digital
Format settings : Dolby Surround EX
Codec ID : A_AC3
Duration : 2 h 22 min
Bit rate mode : Constant
Bit rate : 448 kb/s
Channel(s) : 6 channels
Channel layout : L R C LFE Ls Rs
Sampling rate : 48.0 kHz
Frame rate : 31.250 FPS (1536 SPF)
Compression mode : Lossy
Stream size : 457 MiB (6%)
Title : Original
Language : English
Service kind : Complete Main
Default : No
Forced : No

Text #1
ID : 5
Format : UTF-8
Codec ID : S_TEXT/UTF8
Codec ID/Info : UTF-8 Plain Text
Duration : 2 h 21 min
Bit rate : 0 b/s
Count of elements : 21
Stream size : 909 Bytes (0%)
Title : Forced
Language : Russian
Default : Yes
Forced : Yes

Text #2
ID : 6
Format : UTF-8
Codec ID : S_TEXT/UTF8
Codec ID/Info : UTF-8 Plain Text
Duration : 2 h 21 min
Bit rate : 50 b/s
Count of elements : 1245
Stream size : 52.6 KiB (0%)
Title : Full [License]
Language : Russian
Default : No
Forced : No

Text #3
ID : 7
Format : UTF-8
Codec ID : S_TEXT/UTF8
Codec ID/Info : UTF-8 Plain Text
Duration : 1 h 10 min
Bit rate : 1 b/s
Count of elements : 12
Stream size : 541 Bytes (0%)
Title : Forced
Language : Ukrainian
Default : No
Forced : No

Text #4
ID : 8
Format : UTF-8
Codec ID : S_TEXT/UTF8
Codec ID/Info : UTF-8 Plain Text
Duration : 2 h 16 min
Bit rate : 35 b/s
Count of elements : 1303
Stream size : 35.5 KiB (0%)
Title : Full
Language : English
Default : No
Forced : No

Text #5
ID : 9
Format : UTF-8
Codec ID : S_TEXT/UTF8
Codec ID/Info : UTF-8 Plain Text
Duration : 2 h 20 min
Bit rate : 45 b/s
Count of elements : 1823
Stream size : 47.2 KiB (0%)
Title : SDH
Language : English
Default : No
Forced : No

Menu
00:00:00.000 : Chapter 01
00:10:32.799 : Chapter 02
00:21:47.932 : Chapter 03
00:28:14.568 : Chapter 04
00:37:49.601 : Chapter 05
00:47:41.567 : Chapter 06
01:00:03.475 : Chapter 07
01:10:51.831 : Chapter 08
01:18:50.976 : Chapter 09
01:30:10.655 : Chapter 10
01:39:50.568 : Chapter 11
01:49:31.064 : Chapter 12
01:56:51.171 : Chapter 13
02:07:17.964 : Chapter 14
02:13:17.615 : Chapter 15

pb.wtf



Скачать Фантастические твари: Тайны Дамблдора через торрент https://i6.imageban.ru/out/2022/06/19/d97712b0a5ba471218b352e2d626b53a.png Скачать, смотреть онлайн Фантастические твари: Тайны Дамблдора бесплантно в хорошем качестве Описание: Профессор Альбус Дамблдор узнает, что могущественный темный волшебник Геллерт Грин-де-Вальд планирует захватить Влacть над миром. ... 10 10 5
Торрент: Зарегистрирован [2022-06-23 07:57] · скачан: 176 раз
Статус: √ проверено
Размер: 7.74 GB
Как cкачать? Как скачать Фантастические твари: Тайны Дамблдора через торрент | UTorrent

% Раздел Тема Автор DL S | L
Фильмы 2022 [DVDrip, WEB-DLRip, HDrip] (DUB, MVO) [ 1.46 GB ] Фантастические твари: Тайны Дамблдора / Fantastic Beasts: The Secrets of Dumbledore [2022 BDRip] DUB [] bober100 Скачать
8 | 0
Фильмы (Blu-ray, BD-Remux, HDDVD) [ 27.88 GB ] Фантастические твари: Тайны Дамблдора / Fantastic Beasts: The Secrets of Dumbledore [2022 BD Remux 1080p] DUB [ / Официальный дубляж] bober100 Скачать
3 | 0
Ultra HD (UHD: 2K, 4K, 8K) — видео сверхвысокой чёткости [ 64.07 GB ] Фантастические твари: Тайны Дамблдора / Fantastic Beasts: The Secrets of Dumbledore [2022 UHD BDRemux 2160p ] DUB [ / Официальный дубляж] bober100 Скачать
1 | 0
Ultra HD (UHD: 2K, 4K, 8K) — видео сверхвысокой чёткости [ 58.24 GB ] Фантастические твари: Тайны Дамблдора / Fantastic Beasts: The Secrets of Dumbledore [2022 UHD BDRemux 2160p ] DUB [ / Официальный дубляж] bober100 Скачать
2 | 1
Фильмы [HD 720p, 1080p] (Хороший звук DUB, MVO) [ 10.29 GB ] Фантастические твари: Тайны Дамблдора / Fantastic Beasts: The Secrets of Dumbledore [2022 BDRip 1080p] DUB [ / Официальный дубляж] bober100 Скачать
5 | 0
Фильмы 2022 [DVDrip, WEB-DLRip, HDrip] (DUB, MVO) [ 748 MB ] Фантастические твари: Тайны Дамблдора / Fantastic Beasts: The Secrets of Dumbledore [2022 HDRip] MVO [HDRezka Studio] bober100 Скачать
1 | 0
Фильмы 2022 [DVDrip, WEB-DLRip, HDrip] (DUB, MVO) [ 2.12 GB ] Фантастические твари: Тайны Дамблдора / Fantastic Beasts: The Secrets of Dumbledore [2022 BDRip] DUB [] bober100 Скачать
3 | 0

28-11-2019 20:33  

Отключить вcю реклaмy на сайте

    Дорогой пользователь! Огромная просьба, поблагодарите релизера, оцените раздачу и оставьте свои комментарий, если Вы скачали Фантастические твари: Тайны Дамблдора через торрент бесплатно!
    Комментировать посты могут только пользователи прошедшие не сложную регистрацию
    Показать сообщения:    

    Фантастические твари: Тайны Дамблдора через торрент
    Скачать бесплатно Фантастические твари: Тайны Дамблдора
    Фантастические твари: Тайны Дамблдора скачать торрент
    Фантастические твари: Тайны Дамблдора смотреть онлайн
    Cкачать фильм Фантастические твари: Тайны Дамблдора бесплатно
    Фантастические твари: Тайны Дамблдора скачать торрент в хорошем качестве
    Фантастические твари: Тайны Дамблдора смотреть онлайн бесплатно в хорошем качестве


    Вы не можете начинать темы
    Вы не можете отвечать на сообщения
    Вы не можете редактировать свои сообщения
    Вы не можете удалять свои сообщения
    Вы не можете голосовать в опросах
    Вы не можете прикреплять файлы к сообщениям
    Вы можете скачивать файлы