Доктор Стрэндж

Лицензия

Добыча

MVO

Дом дракона

1 сезон

Тор

Лицензия

Мэверик

Лицензия

Там, где раки поют

MVO

Властелин колец

1 сезон

Ultimate

pack

Рекомендуем

30

Repack

ВАЖНО

ВАЖНО

Ghostwire

RePack

jed

RePack

nioh2

RePack

RDR2

RePack

NEED FOR SPEED™ PAYBACK

RePack

скачать торрент

Кинопоиск HD

Острые козырьки 6 сезон

6 сезон

FAR CRY 6

RePack

скачать торрент

Лицензия

скачать торрент

MVO

1

1 сезон

скачать торрент

1 сезон

скачать торрент

Лицензия

  

Человек-паук: Вдали от дома / Spider-Man: Far from Home (Джон Уоттс) [2019 г., фантастика, боевик, приключения, HybridRip 720p / 60 FPS, Дубляж] (IMAX Edition) от R.G. HD-Films

Человек-паук: Вдали от дома через торрент pb.wtf

Размер: 5.65 GB | Добавлен: 3 мес. 11 д. назад | Торрент скачан:28 раз
Смотреть онлайн | Скачать   

25-06-2022 12:21 Человек-паук: Вдали от дома Скачать торрент  

Человек-паук: Вдали от дома / Spider-Man: Far from Home
Год выпуска: 2019
Страна: США
Жанр: фантастика, боевик, приключения
Продолжительность: 02:13:55
Перевод: Дубляж
Субтитры: Русские (Forced вшитые, full), английские

Режиссер: Джон Уоттс

Бюджет: $160 000 000
Премьера в мире: 26 июня 2019

rating

В ролях: Том Холланд, Сэмюэл Л. Джексон, Джейк Джилленхол, Зендея, Коби Смолдерс, Мариса Томей, Джон Фавро, Джейкоб Баталон, Тони Револори, Энгаури Райс

Описание: Питер Паркер вместе с одноклассниками отправляется на летние каникулы в Европу. Однако отдохнуть приятелям вряд ли удастся - по прибытии в Венецию группа попадет в эпицентр сражения. Некое существо, состоящее из воды, появляется из ниоткуда и начинает крушить всё на своём пути, и теперь Питеру придётся спасать европейские архитектурные памятники вместе с загадочным супергероем Мистерио.

Доп. информация: Расширенная IMAX версия со вставками трех удаленных сцен на 5 минут из доп материалов. данные сцены переведены субтитрами
IMAX сцен примерно на 47 минут


Качество: HybridRip 720p / 60 FPS
Формат: MKV
Видео кодек: H.264
Аудио кодек: AC3
Видео: x264, 1280 x 672 ( 1,905 ), 5655 kbps, 60,000 fps, ( 0.110 bpp)
Аудио#1: Русский, AC-3, 48.0 KHz, 6 ch, 384 Kbps
Релиз от: Автор рипа: slaventi-69
x264 [info]: profile High, level 4.1
x264 [info]: frame I:2473 Avg QP:12.22 size: 96734
x264 [info]: frame P:108773 Avg QP:14.16 size: 26175
x264 [info]: frame B:370855 Avg QP:16.39 size: 6993
x264 [info]: consecutive B-frames: 1.9% 2.2% 5.7% 15.7% 55.3% 19.3%


Общее
Уникальный идентификатор : 324679540443362999513736799284047199667 (0xF4430142E4F08752B2FC3385E0293DB3)
Полное имя : G:\60 FPS\Spider-Man.Far.from.Home.(2019).HybridRip.720p.(60 Fps).(Extended Cut).(IMAX).mkv
Формат : Matroska
Версия формата : Version 4
Размер файла : 5,65 Гбайт
Продолжительность : 2 ч. 13 м.
Общий поток : 6043 Кбит/сек
Название фильма : Человек-паук: Вдали от дома / Spider-Man: Far from Home (2019) HybridRip 720p (60 Fps) | Extended Cut | IMAX Edition
Дата кодирования : UTC 2022-06-25 11:43:48
Программа кодирования : mkvmerge v25.0.0 ('Prog Noir') 64-bit
Библиотека кодирования : libebml v1.3.6 + libmatroska v1.4.9

Видео
Идентификатор : 1
Формат : AVC
Формат/Информация : Advanced Video Codec
Профиль формата : [email protected]
Настройки формата : CABAC / 9 Ref Frames
Параметр CABAC формата : Да
Параметр RefFrames формата : 9 кадров
Идентификатор кодека : V_MPEG4/ISO/AVC
Продолжительность : 2 ч. 13 м.
Битрейт : 5655 Кбит/сек
Ширина : 1280 пикселей
Высота : 672 пикселя
Соотношение сторон : 1,905
Режим частоты кадров : Постоянный
Частота кадров : 60,000 кадров/сек
Цветовое пространство : YUV
Субдискретизация насыщенности : 4:2:0
Битовая глубина : 8 бит
Тип развёртки : Прогрессивная
Бит/(Пиксели*Кадры) : 0.110
Размер потока : 5,29 Гбайт (94%)
Заголовок : slaventi-69 ( R.G. HD-Films | 60 fps )
Библиотека кодирования : x264 core 130 r2273 b3065e6
Настройки программы : cabac=1 / ref=9 / deblock=1:-3:-3 / analyse=0x3:0x133 / me=umh / subme=9 / psy=1 / psy_rd=1.00:0.00 / mixed_ref=1 / me_range=32 / chroma_me=1 / trellis=2 / 8x8dct=1 / cqm=0 / deadzone=21,11 / fast_pskip=0 / chroma_qp_offset=-2 / threads=8 / lookahead_threads=4 / sliced_threads=0 / nr=0 / decimate=1 / interlaced=0 / bluray_compat=0 / constrained_intra=0 / bframes=5 / b_pyramid=2 / b_adapt=2 / b_bias=0 / direct=1 / weightb=1 / open_gop=0 / weightp=2 / keyint=600 / keyint_min=23 / scenecut=40 / intra_refresh=0 / rc=crf / mbtree=0 / crf=14.7 / qcomp=0.60 / qpmin=0 / qpmax=69 / qpstep=4 / ip_ratio=1.40 / pb_ratio=1.30 / aq=1:1.00
Язык : English
Default : Да
Forced : Нет

Аудио
Идентификатор : 2
Формат : AC-3
Формат/Информация : Audio Coding 3
Коммерческое название : Dolby Digital
Идентификатор кодека : A_AC3
Продолжительность : 2 ч. 13 м.
Вид битрейта : Постоянный
Битрейт : 384 Кбит/сек
Каналы : 6 каналов
Channel layout : L R C LFE Ls Rs
Частота : 48,0 КГц
Частота кадров : 31,250 кадров/сек (1536 SPF)
Битовая глубина : 16 бит
Метод сжатия : С потерями
Размер потока : 368 Мбайт (6%)
Заголовок : DUB
Язык : Russian
ServiceKind/String : Complete Main
Default : Да
Forced : Нет

Текст #1
Идентификатор : 3
Формат : UTF-8
Идентификатор кодека : S_TEXT/UTF8
Идентификатор кодека/Информация : UTF-8 Plain Text
Продолжительность : 2 ч. 12 м.
Битрейт : 92 бит/сек
ElementCount : 1723
Размер потока : 90,3 Кбайт (0%)
Заголовок : full
Язык : Russian
Default : Нет
Forced : Нет

Текст #2
Идентификатор : 4
Формат : UTF-8
Идентификатор кодека : S_TEXT/UTF8
Идентификатор кодека/Информация : UTF-8 Plain Text
Продолжительность : 2 ч. 12 м.
Битрейт : 62 бит/сек
ElementCount : 1800
Размер потока : 60,3 Кбайт (0%)
Язык : English
Default : Нет
Forced : Нет

Просьба к переливающим на другие сайты, в оформлении указывайте пожалуйста авторство группы R.G. HD-Films



Скачать Человек-паук: Вдали от дома через торрент https://i90.fastpic.ru/big/2019/0920/f3/71fe0bebf316919fc2343463045b74f3.jpg Скачать, смотреть онлайн Человек-паук: Вдали от дома бесплантно в хорошем качестве Описание: Питер Паркер вместе с одноклассниками отправляется на летние каникулы в Европу. Однако отдохнуть приятелям вряд ли удастся - по ... 9.3 10 13
Info! Золотая раздача, скачанное не засчитывается.
Торрент: Зарегистрирован [2022-06-25 12:21] · скачан: 28 раз
Статус: √ проверено
Размер: 5.65 GB
Как cкачать? Как скачать Человек-паук: Вдали от дома через торрент | UTorrent

% Раздел Тема Автор DL S | L
Ultra HD (UHD: 2K, 4K, 8K) [ 51.75 GB ] Человек-паук: Вдали от дома / Spider-Man: Far from Home | iTunes | 2160p bober100 Скачать
1 | 0
3D Фильмы [ 8.63 GB ] Человек-паук: Вдали от дома в 3D / Spider-Man: Far from Home in 3D | Дубляж | 1080p, Дубляж slaventi-69 Скачать
1 | 0
Фильмы (HD 720p, 1080p) (48-60 fps) [ 4.55 GB ] Человек-паук: Вдали от дома / Spider-Man: Far from Home | Дубляж | 720p / 60 FPS slaventi-69 Скачать
2 | 0
Фильмы 2019-2020 [DVDrip, WEB-DLRip, HDrip] (DUB, MVO) [ 795 MB ] Человек-паук: Вдали от дома / Spider-Man: Far from Home | Лицензия | HDRip bober100 Скачать
1 | 0
Фильмы (Blu-ray, BD-Remux, HDDVD) [ 42.96 GB ] Человек-паук: Вдали от дома / Spider-Man: Far from Home | Лицензия | 1080p bober100 Скачать
1 | 0
Фильмы 2019-2020 [DVDrip, WEB-DLRip, HDrip] (DUB, MVO) [ 1.46 GB ] Человек-паук: Вдали от дома / Spider-Man: Far from Home | Лицензия BD EUR | BDRip bober100 Скачать
1 | 0
Ultra HD (UHD: 2K, 4K, 8K) [ 70.77 GB ] Человек-паук: Вдали от дома / Spider-Man: Far from Home | Лицензия | 2160p bober100 Скачать
1 | 0

28-11-2019 20:33  


Отключить вcю реклaмy на сайте, в т.ч. и в плеере онлайн просмотра!

25-06-2022 15:49 Человек-паук: Вдали от дома Скачать торрент  

Раздача стала золотой благодаря:
Chuvackk(5000)

Спасибо за Золото.

Не пойму, неужели все так плохо или это не знание использования кнопок рейтинга? Что то не так, поясните что, Пропадает всякое желание делать релизы. Спасибо за оценку.



26-06-2022 15:56 Человек-паук: Вдали от дома Скачать торрент  

За позолоту раздач, всегда пожалуйста, один из любимых релизеров
А единички рейтинга ставят вредители, чтоб у них зуб болел
Лично я всегда тебе ставлю десяточку+благодарность
Спасибо




26-06-2022 16:29 Человек-паук: Вдали от дома Скачать торрент  

Еще раз Спасибо большое и смотрите в удовольствие.



30-06-2022 05:50 Человек-паук: Вдали от дома Скачать торрент  

slaventi-69, Огромное спасибо за раздачу! Качество отличное! Никаких артефактов замечено не было. По поводу рейтинга, завистников вагон и маленькая тележка! Если на всех обращать внимание, времени на рипы не хватит



30-06-2022 20:46 Человек-паук: Вдали от дома Скачать торрент  

slaventi-69 писал(а):

Раздача стала золотой благодаря:
Chuvackk(5000)

Спасибо за Золото.

Не пойму, неужели все так плохо или это не знание использования кнопок рейтинга? Что то не так, поясните что, Пропадает всякое желание делать релизы. Спасибо за оценку.

за 10 лет на трекере, только узнал



    Дорогой пользователь! Огромная просьба, поблагодарите релизера, оцените раздачу и оставьте свои комментарий, если Вы скачали Человек-паук: Вдали от дома через торрент бесплатно!!
    Комментировать посты могут только пользователи прошедшие не сложную регистрацию
    Показать сообщения:    


    Человек-паук: Вдали от дома через торрент
    Скачать бесплатно Человек-паук: Вдали от дома
    Человек-паук: Вдали от дома скачать торрент
    Человек-паук: Вдали от дома смотреть онлайн
    Cкачать фильм Человек-паук: Вдали от дома бесплатно
    Человек-паук: Вдали от дома скачать торрент в хорошем качестве
    Человек-паук: Вдали от дома смотреть онлайн бесплатно в хорошем качестве
    Вы не можете начинать темы
    Вы не можете отвечать на сообщения
    Вы не можете редактировать свои сообщения
    Вы не можете удалять свои сообщения
    Вы не можете голосовать в опросах
    Вы не можете прикреплять файлы к сообщениям
    Вы можете скачивать файлы