Доктор Стрэндж

Лицензия

Добыча

Дубляж

Дом дракона

1 сезон

Тор

Дубляж

В эфире

Дубляж

Там, где раки поют

MVO

Властелин колец

1 сезон

Deluxe

pack

Рекомендуем

30

Пиратка

ВАЖНО

ВАЖНО

Ghostwire

Пиратка

jed

RePack

nioh2

RePack

RDR2

RePack

NEED FOR SPEED™ PAYBACK

RePack

скачать торрент

Кинопоиск HD

Острые козырьки 6 сезон

6 сезон

FAR CRY 6

RePack

скачать торрент

Лицензия

скачать торрент

MVO

1

1 сезон

скачать торрент

1 сезон

скачать торрент

Лицензия

  

Алиса в стране чудес в 3Д / Alice in Wonderland 3D (Тим Бёртон / Tim Burton) [2010, фэнтези, приключения, семейный, BDRip, 1080p] OverUnder / Вертикальная стереопара

Алиса в стране чудес в 3Д через торрент pb.wtf

Размер: 19.68 GB | Добавлен: 5 мес. 5 д. назад | Торрент скачан:7 раз
Смотреть онлайн | Скачать   

27-06-2022 14:47 Алиса в стране чудес в 3Д Скачать торрент  

Алиса в стране чудес / Alice in Wonderland

Год выпуска: 2010
Страна: США
Жанр: фэнтези, приключения, семейный
Продолжительность: 01:48:34

Перевод: Профессиональный (дублированный)
Русские субтитры: нет
Режиссер на русском: Тим Бёртон / Tim Burton

В ролях: Миа Васиковска, Джонни Депп, Хелена Бонем Картер, Энн Хэтэуэй, Криспин Гловер, Мэтт Лукас, Стивен Фрай, Майкл Шин, Алан Рикман, Барбара Уиндсор.

Описание: Жизнь 19-летней Алисы Кингсли принимает неожиданный оборот. На викторианской вечеринке, устроенной в её честь, Алисе делает предложение Хэмиш, богатый, но глупый сын лорда и леди Эскот. Не дав ответа, девушка убегает и идёт за кроликом, замеченным ею на лужайке. Кролик как кролик, вот только он одет в камзол и всё время смотрит на карманные часы. Алиса гонится за Белым Кроликом через весь луг и видит, как он исчезает в кроличьей норе. Затем, неожиданно, Алиса падает туда сама, летит вниз по странному, сказочному туннелю и приземляется в круглом зале со множеством дверей. Выпив из бутылки с надписью ВЫПЕЙ МЕНЯ, она уменьшается в размерах, а откусив от пирожного с надписью СЪЕШЬ МЕНЯ — вырастает. Наконец, миновав череду злоключений, Алиса попадает через одну из дверей в чудесный фантастический мир, который его обитатели называют Подземной страной. Там её ждёт целый парад колоритных персонажей: хвастливая Соня, сумасшедший Шляпник, глумливый Чеширский Кот, накурившаяся кальяном гусеница по имени Абессалом, жутковатая Белая Королева и её злобная сестра, Королева Червей, вздорная и раздражительная правительница Подземной страны.

Сэмпл: http://sendfile.su/1650696

Качество: BDrip, 1080p
Контейнер: MKV
Формат 3D: OverUnder / Вертикальная стереопара
Порядок ракурсов: левый ракурс первый
Видео кодек: x264
Аудио кодек: AC3
Видео: AVC / [email protected] / 23,976 fps / 1920х2160 / 26,2 Мбит/сек
Аудио: Русский / AC3 / 48 KHz / 5.1 ch / 640 Кбит/сек
Аудио 2: Английский / AC3 / 48 KHz / 5.1 ch / 640 Кбит/сек

ВНИМАНИЕ ! На встроенных ТВ-плеерах работать не будет!!!

ТВ Samsung в названии которого есть надпись Ultra HD , и LG Ultra HD 800 серии, LG C6P, Xiaomi Mi TV 2, GRUNDIG VLE 8474 BL, Samsung UE48H6200AK, SUPRA STV-LC42ST960UL00 воспроизводят полные стереопары встроенными плеерами
Железные плееры на которых воспроизводятся полные стереопары:Popcorn C-200, Popcorn a-400, Dune HD Smart D1 , Dune HD DUO , Dune HD Smart H1 , Dune HD Smart B1 , Dune HD Max , Dune HD TV-303D, Dune HD TV-102, Dune HD Base 3D, Philips HMP7001, Aura HD, MECOOL BB2, Zidoo x9s, Lake I Cloud, MiBox 3, Oculus Quest 2
Чтобы изображение было на весь экран в плеере выставляем, если рип 1920х1600 - то выставляем 2.35:1 , если 1920х2160 - то выставляем 16:9

Общее
Уникальный идентификатор : 249310405744790883892016617202320679923 (0xBB8F7005B5ABFE3FBDA9735061CC23F3)
Полное имя : E:\ISO\Alice in Wonderland.Rip by SeRoGa00.mkv
Формат : Matroska
Версия формата : Version 2
Размер файла : 19,7 Гбайт
Продолжительность : 1 ч. 48 м.
Общий поток : 25,9 Мбит/сек
Дата кодирования : UTC 2022-03-20 05:13:00
Программа кодирования : mkvmerge v4.9.1 ('Ich will') сборка от Jul 11 2011 23:53:15
Библиотека кодирования : libebml v1.2.1 + libmatroska v1.1.1

Видео
Идентификатор : 1
Формат : AVC
Формат/Информация : Advanced Video Codec
Профиль формата : [email protected]
Параметр CABAC формата : Да
Параметр ReFrames формата : 4 кадра
Идентификатор кодека : V_MPEG4/ISO/AVC
Продолжительность : 1 ч. 48 м.
Битрейт : 24,2 Мбит/сек
Ширина : 1920 пикселей
Высота : 2160 пикселей
Соотношение сторон : 0,889
Частота кадров : 23,976 кадра/сек
Цветовое пространство : YUV
Субдискретизация насыщенности : 4:2:0
Битовая глубина : 8 бит
Тип развёртки : Прогрессивная
Бит/(Пиксели*Кадры) : 0.243
Размер потока : 18,3 Гбайт (93%)
Заголовок : Rip by SeRoGa00
Библиотека кодирования : x264 core 157 r2969 d4099dd
Настройки программы : cabac=1 / ref=4 / deblock=1:-3:-3 / analyse=0x3:0x113 / me=umh / subme=10 / psy=1 / psy_rd=1.00:0.15 / mixed_ref=1 / me_range=24 / chroma_me=1 / trellis=2 / 8x8dct=1 / cqm=0 / deadzone=21,11 / fast_pskip=1 / chroma_qp_offset=-3 / threads=12 / lookahead_threads=6 / sliced_threads=0 / nr=0 / decimate=0 / interlaced=0 / bluray_compat=0 / constrained_intra=0 / bframes=10 / b_pyramid=2 / b_adapt=2 / b_bias=0 / direct=3 / weightb=1 / open_gop=0 / weightp=2 / keyint=250 / keyint_min=23 / scenecut=40 / intra_refresh=0 / rc_lookahead=60 / rc=crf / mbtree=1 / crf=16.5 / qcomp=0.60 / qpmin=10 / qpmax=69 / qpstep=4 / vbv_maxrate=40000 / vbv_bufsize=40000 / crf_max=0.0 / nal_hrd=none / filler=0 / ip_ratio=1.40 / aq=1:1.00
Язык : English
Default : Да
Forced : Нет

Аудио #1
Идентификатор : 2
Формат : AC-3
Формат/Информация : Audio Coding 3
Расширение режима : CM (complete main)
Параметр Endianness формата : Big
Идентификатор кодека : A_AC3
Продолжительность : 1 ч. 48 м.
Вид битрейта : Постоянный
Битрейт : 640 Кбит/сек
Каналы : 6 каналов
Расположение каналов : Front: L C R, Side: L R, LFE
Частота : 48,0 КГц
Битовая глубина : 16 бит
Метод сжатия : С потерями
Размер потока : 497 Мбайт (2%)
Язык : Russian
Default : Да
Forced : Нет

Аудио #2
Идентификатор : 3
Формат : AC-3
Формат/Информация : Audio Coding 3
Расширение режима : CM (complete main)
Параметр Endianness формата : Big
Идентификатор кодека : A_AC3
Продолжительность : 1 ч. 48 м.
Вид битрейта : Постоянный
Битрейт : 640 Кбит/сек
Каналы : 6 каналов
Расположение каналов : Front: L C R, Side: L R, LFE
Частота : 48,0 КГц
Битовая глубина : 16 бит
Метод сжатия : С потерями
Размер потока : 497 Мбайт (2%)
Язык : English
Default : Нет
Forced : Нет

Меню
00:00:00.000 : en:00:00:00.000
00:04:24.889 : en:00:04:24.889
00:10:36.885 : en:00:10:36.885
00:18:13.509 : en:00:18:13.509
00:24:44.316 : en:00:24:44.316
00:28:41.344 : en:00:28:41.344
00:36:51.125 : en:00:36:51.125
00:46:15.731 : en:00:46:15.731
00:52:44.786 : en:00:52:44.786
01:04:05.048 : en:01:04:05.048
01:10:02.197 : en:01:10:02.197
01:15:36.489 : en:01:15:36.489
01:23:39.264 : en:01:23:39.264
01:34:12.688 : en:01:34:12.688
01:36:58.354 : en:01:36:58.354
01:40:12.131 : en:01:40:12.131



Скачать Алиса в стране чудес в 3Д через торрент https://i2-imageban-ru.translate.goog/out/2022/06/27/0a7be145828a2302a2f1961d43db05a1.png Скачать, смотреть онлайн Алиса в стране чудес в 3Д бесплантно в хорошем качестве Описание: Жизнь 19-летней Алисы Кингсли принимает неожиданный оборот. На викторианской вечеринке, устроенной в её честь, Алисе делает ... 10 10 2
Торрент: Зарегистрирован [2022-06-27 14:47] · скачан: 7 раз
Статус: √ проверено
Размер: 19.68 GB
Как cкачать? Как скачать Алиса в стране чудес в 3Д через торрент | UTorrent

28-11-2019 20:33  


Отключить вcю реклaмy на сайте, в т.ч. и в плеере онлайн просмотра!

    Дорогой пользователь! Огромная просьба, поблагодарите релизера, оцените раздачу и оставьте свои комментарий, если Вы скачали Алиса в стране чудес в 3Д через торрент бесплатно!!
    Комментировать посты могут только пользователи прошедшие не сложную регистрацию
    Показать сообщения:    


    Алиса в стране чудес в 3Д через торрент
    Скачать бесплатно Алиса в стране чудес в 3Д
    Алиса в стране чудес в 3Д скачать торрент
    Алиса в стране чудес в 3Д смотреть онлайн
    Cкачать фильм Алиса в стране чудес в 3Д бесплатно
    Алиса в стране чудес в 3Д скачать торрент в хорошем качестве
    Алиса в стране чудес в 3Д смотреть онлайн бесплатно в хорошем качестве
    Вы не можете начинать темы
    Вы не можете отвечать на сообщения
    Вы не можете редактировать свои сообщения
    Вы не можете удалять свои сообщения
    Вы не можете голосовать в опросах
    Вы не можете прикреплять файлы к сообщениям
    Вы можете скачивать файлы
    Алиса в стране чудес в 3Д / Alice in Wonderland 3D [2010, фэнтези, приключения, семейный, BDRip, 1080p] OverUnder / Вертикальная стереопара смотреть онлайн, скачать торрент picoco.icu