Лицензия

MVO

1

1 сезон

Лицензия

Лицензия

13

MVO

1 сезон

Deluxe Edition

pack

Рекомендуем

30

Repack

ВАЖНО

ВАЖНО

Ghostwire

RePack

jed

RePack

fifa19

RePack

RDR2

RePack

NEED FOR SPEED™ PAYBACK

RePack

Кинопоиск HD

 Острые козырьки 6 сезон

6 сезон

FAR CRY 6

RePack

Лицензия

MVO

1

1 сезон

1 сезон

Лицензия

  

Предложение / The Offer / Сезон: 1 / Серии: 1-10 из 10 (Адам Аркин, Декстер Флетчер, Колин Бакси) [2022, Драма, биография, WEB-DL (HEVC)1080p] 2x [MVO] (HDRezka Studio, LostFilm)

Предложение через торрент pb.wtf

Качают: 1 [ 0 KB/s ]
Размер: 17.96 GB | Добавлен: 2 мес. 17 д. назад | Торрент скачан:27 раз
Смотреть онлайн Предложение | Скачать   

04-05-2022 19:05 Предложение Скачать торрент  

Предложение / The Offer
✦ Год выпуска: 2022
✦ Страна: США
✦ Жанр: Драма, биография
✦ Продолжительность: 1 x ~ 01:00:00
✦ Перевод #1: Профессиональный (многоголосый закадровый) - HDRezka Studio
✦ Перевод #2: Профессиональный (многоголосый закадровый) - LostFilm
✦ Субтитры: русские (forced), английские

✦ Режиссёры: Адам Аркин, Декстер Флетчер, Колин Бакси

✦ В ролях: Майлз Теллер, Мэттью Гуд, Джуно Темпл, Джованни Рибизи, Дэн Фоглер, Берн Горман, Колин Хэнкс, Патрик Галло, Джош Цуккерман, Нора Арнезедер

✦ Описание: Сериал «Предложение» рассказывает о том, как голливудский продюсер Альберт С. Радди решил экранизировать криминальный роман Марио Пьюзо «Крестный отец», и о том, как Радди и Фрэнсис Форд Коппола работали над картиной, которая впоследствии стала классикой кинематографа.

rating

✦ Качество: WEB-DL (HEVC)1080p
✦ Формат: MKV
✦ Видео: HEVC, 1920x1080, ~ 2 900 kbps/s, 23,976 fps
✦ Аудио #1: 48 kHz, AC3, 6 ch, 448 kbps | HDRezka Studio *18+ Версия без цензуры
✦ Аудио #2: 48 kHz, AC3, 2 ch, 384 kbps | LostFilm
✦ Аудио #3: 48 kHz, E-AC3, 6 ch, 640 kbps | English
скриншот  скриншот  скриншот  скриншот  скриншот  
General
Unique ID : 235251103923425615874424691899588912082 (0xB0FBB6ECB9732C4F92B0989224C3A3D2)
Complete name : The Offer.S01.WEB-DL(HEVC)1080p.xz\The Offer.S01E01.WEB-DL(HEVC)1080p. 2x (HDRezka Studio, LostFilm).xz.mkv
Format : Matroska
Format version : Version 4
File size : 2.10 GiB
Duration : 1 h 8 min
Overall bit rate : 4 403 kb/s
Movie name : The Offer.S01E01.WEB-DL(HEVC)1080p. 2x (HDRezka Studio, LostFilm).xz
Encoded date : UTC 2022-05-04 18:42:38
Writing application : mkvmerge v6.1.0 ('Old Devil') built on Mar 2 2013 14:32:37
Writing library : libebml v1.3.0 + libmatroska v1.4.0 / Lavf58.44.100

Video
ID : 1
Format : HEVC
Format/Info : High Efficiency Video Coding
Format profile : [email protected]@Main
Codec ID : V_MPEGH/ISO/HEVC
Duration : 1 h 8 min
Bit rate : 2 844 kb/s
Width : 1 920 pixels
Height : 1 080 pixels
Display aspect ratio : 16:9
Frame rate mode : Constant
Frame rate : 24.000 FPS
Color space : YUV
Chroma subsampling : 4:2:0
Bit depth : 8 bits
Bits/(Pixel*Frame) : 0.057
Stream size : 1.36 GiB (65%)
Title : The Offer.S01E01.WEB-DL(HEVC)1080p. 2x (HDRezka Studio, LostFilm).xz
Writing library : x265 3.2:[Windows][GCC 9.2.0][64 bit] 8bit
Encoding settings : cpuid=1049583 / frame-threads=2 / numa-pools=4 / wpp / no-pmode / no-pme / no-psnr / no-ssim / log-level=2 / input-csp=1 / input-res=1920x1080 / interlace=0 / total-frames=0 / level-idc=0 / high-tier=1 / uhd-bd=0 / ref=2 / no-allow-non-conformance / no-repeat-headers / annexb / no-aud / no-hrd / info / hash=0 / no-temporal-layers / open-gop / min-keyint=2 / keyint=24 / gop-lookahead=0 / bframes=0 / b-adapt=0 / no-b-pyramid / bframe-bias=0 / rc-lookahead=15 / lookahead-slices=6 / scenecut=40 / radl=0 / no-splice / no-intra-refresh / ctu=64 / min-cu-size=8 / no-rect / no-amp / max-tu-size=32 / tu-inter-depth=1 / tu-intra-depth=1 / limit-tu=0 / rdoq-level=0 / dynamic-rd=0.00 / no-ssim-rd / signhide / no-tskip / nr-intra=0 / nr-inter=0 / no-constrained-intra / strong-intra-smoothing / max-merge=2 / limit-refs=3 / no-limit-modes / me=1 / subme=1 / merange=57 / temporal-mvp / no-hme / weightp / no-weightb / no-analyze-src-pics / deblock=0:0 / sao / no-sao-non-deblock / rd=2 / selective-sao=4 / early-skip / rskip / fast-intra / no-tskip-fast / no-cu-lossless / no-b-intra / no-splitrd-skip / rdpenalty=0 / psy-rd=2.00 / psy-rdoq=0.00 / no-rd-refine / no-lossless / cbqpoffs=0 / crqpoffs=0 / rc=cbr / bitrate=3000 / qcomp=0.60 / qpstep=4 / stats-write=0 / stats-read=0 / vbv-maxrate=3000 / vbv-bufsize=4500 / vbv-init=0.8 / ipratio=1.40 / aq-mode=2 / aq-strength=1.00 / cutree / zone-count=0 / no-strict-cbr / qg-size=32 / no-rc-grain / qpmax=69 / qpmin=0 / no-const-vbv / sar=1 / overscan=0 / videoformat=5 / range=1 / colorprim=2 / transfer=2 / colormatrix=2 / chromaloc=0 / display-window=0 / cll=0,0 / min-luma=0 / max-luma=255 / log2-max-poc-lsb=8 / vui-timing-info / vui-hrd-info / slices=1 / no-opt-qp-pps / no-opt-ref-list-length-pps / no-multi-pass-opt-rps / scenecut-bias=0.05 / no-opt-cu-delta-qp / no-aq-motion / no-hdr / no-hdr-opt / no-dhdr10-opt / no-idr-recovery-sei / analysis-reuse-level=5 / scale-factor=0 / refine-intra=0 / refine-inter=0 / refine-mv=1 / refine-ctu-distortion=0 / no-limit-sao / ctu-info=0 / no-lowpass-dct / refine-analysis-type=0 / copy-pic=1 / max-ausize-factor=1.0 / no-dynamic-refine / no-single-sei / no-hevc-aq / no-svt / no-field / qp-adaptation-range=1.00
Default : Yes
Forced : No
Color range : Full
Duration_Source : General_Duration

Audio #1
ID : 2
Format : AC-3
Format/Info : Audio Coding 3
Commercial name : Dolby Digital
Codec ID : A_AC3
Duration : 1 h 8 min
Bit rate mode : Constant
Bit rate : 448 kb/s
Channel(s) : 6 channels
Channel layout : L R C LFE Ls Rs
Sampling rate : 48.0 kHz
Frame rate : 31.250 FPS (1536 SPF)
Compression mode : Lossy
Stream size : 219 MiB (10%)
Title : HDRezka Studio
Language : Russian
Service kind : Complete Main
Default : No
Forced : No
Duration_Source : General_Duration

Audio #2
ID : 3
Format : AC-3
Format/Info : Audio Coding 3
Commercial name : Dolby Digital
Codec ID : A_AC3
Duration : 1 h 8 min
Bit rate mode : Constant
Bit rate : 384 kb/s
Channel(s) : 2 channels
Channel layout : L R
Sampling rate : 48.0 kHz
Frame rate : 31.250 FPS (1536 SPF)
Compression mode : Lossy
Stream size : 188 MiB (9%)
Title : LostFilm
Language : Russian
Service kind : Complete Main
Default : No
Forced : No
Duration_Source : General_Duration

Audio #3
ID : 4
Format : E-AC-3
Format/Info : Enhanced AC-3
Commercial name : Dolby Digital Plus
Codec ID : A_EAC3
Duration : 1 h 8 min
Bit rate mode : Constant
Bit rate : 640 kb/s
Channel(s) : 6 channels
Channel layout : L R C LFE Ls Rs
Sampling rate : 48.0 kHz
Frame rate : 31.250 FPS (1536 SPF)
Compression mode : Lossy
Stream size : 313 MiB (15%)
Language : English
Service kind : Complete Main
Default : No
Forced : No
Duration_Source : General_Duration

Text #1
ID : 5
Format : UTF-8
Codec ID : S_TEXT/UTF8
Codec ID/Info : UTF-8 Plain Text
Title : forced
Language : Russian
Default : Yes
Forced : No

Text #2
ID : 6
Format : UTF-8
Codec ID : S_TEXT/UTF8
Codec ID/Info : UTF-8 Plain Text
Language : English
Default : No
Forced : No

Text #3
ID : 7
Format : UTF-8
Codec ID : S_TEXT/UTF8
Codec ID/Info : UTF-8 Plain Text
Title : SDH
Language : English
Default : No



Скачать Предложение через торрент https://i117.fastpic.org/big/2022/0430/26/70c59c4091d67fd57c17f43bf1502626.jpg Скачать, смотреть онлайн Предложение бесплантно в хорошем качестве Описание: Сериал «Предложение» рассказывает о том, как голливудский продюсер Альберт С. Радди решил экранизировать криминальный роман Марио ... 7.8 10 8
Торрент: Зарегистрирован [2022-07-07 16:08] · скачан: 27 раз
Статус: √ проверено
Размер: 17.96 GB
Как cкачать? Как скачать Предложение через торрент | UTorrent

% Раздел Тема Автор DL S | L
Зарубежные сериалы [ 18.89 GB ] Предложение / The Offer / Сезон: 1 / Серии: 1-10 из 10 | HDRezka Studio | 720p killermax2013 Скачать
3 | 0



Последний раз редактировалось: killermax2013 (2022-07-07 16:08), всего редактировалось 5 раз(а)

28-11-2019 20:33  

Отключить вcю реклaмy на сайте

22-05-2022 17:21 Предложение Скачать торрент  

Чё все носятся с этим "Крёстным отцом" ... он разочаровывает, если книгу читал . Подозрительно это .



05-07-2022 17:50 Предложение Скачать торрент  

Фильм шикарный!!!!



    Дорогой пользователь! Огромная просьба, поблагодарите релизера, оцените раздачу и оставьте свои комментарий, если Вы скачали Предложение через торрент бесплатно!!
    Комментировать посты могут только пользователи прошедшие не сложную регистрацию
    Показать сообщения:    


    Предложение через торрент
    Скачать бесплатно Предложение
    Предложение скачать торрент
    Предложение смотреть онлайн
    Cкачать фильм Предложение бесплатно
    Предложение скачать торрент в хорошем качестве
    Предложение смотреть онлайн бесплатно в хорошем качестве
    Вы не можете начинать темы
    Вы не можете отвечать на сообщения
    Вы не можете редактировать свои сообщения
    Вы не можете удалять свои сообщения
    Вы не можете голосовать в опросах
    Вы не можете прикреплять файлы к сообщениям
    Вы можете скачивать файлы