Доктор Стрэндж

Лицензия

Добыча

Дубляж

Дом дракона

1 сезон

Тор

Дубляж

В эфире

Дубляж

Там, где раки поют

MVO

Властелин колец

1 сезон

Deluxe

pack

Рекомендуем

30

Пиратка

ВАЖНО

ВАЖНО

Ghostwire

Пиратка

jed

RePack

nioh2

RePack

RDR2

RePack

NEED FOR SPEED™ PAYBACK

RePack

скачать торрент

Кинопоиск HD

Острые козырьки 6 сезон

6 сезон

FAR CRY 6

RePack

скачать торрент

Лицензия

скачать торрент

MVO

1

1 сезон

скачать торрент

1 сезон

скачать торрент

Лицензия

  

Вечные в 3D / Eternals in 3D (Хлоя Чжао) [2021 г., фантастика, фэнтези, боевик, приключения, 3D BDRip 1080p, Дубляж iTunes] Анаглиф (Дюбуа) от R.G. HD-Films

Вечные в 3D через торрент pb.wtf

Размер: 9.16 GB | Добавлен: 4 мес. 25 д. назад | Торрент скачан:8 раз
Смотреть онлайн | Скачать   

08-07-2022 12:16 Вечные в 3D Скачать торрент  

Вечные в 3D / Eternals in 3D
Год выпуска: 2021
Страна: США
Жанр: фантастика, фэнтези, боевик, приключения
Продолжительность: 02:35:50
Перевод: Дубляж iTunes
Субтитры: Русские (Forced вшитые, full), английские

Режиссер: Хлоя Чжао

rating

В ролях: Анджелина Джоли, Ричард Мэдден, Кумэйл Нанджиани, Сальма Хайек, Брайан Тайри Генри, Ма Дон Сок, Лорен Ридлофф, Лия МакХью, Джемма Чэн, Барри Кеоган, Кит Харингтон, Хариш Патель, Гарри Стайлз, Адрия Эскудеро, Джанни Калчетти, Никкита Чадха, Бренда Лорена Гарсиа, Дерек Хоршман, Джефф Мирза, Хааз Слейман

Описание: Много тысячелетий назад с планеты Олимпия на Землю была отправлена группа сверхлюдей, обладающих суперспособностями, — Вечные. С доисторических времён они защищали человечество от нападений ужасных чудовищ девиантов, но любое другое вмешательство в развитие цивилизации им было запрещено.
Начало XXI века. Уже несколько столетий прошло с тех пор, как был уничтожен последний девиант, когда после странного землетрясения внезапно объявляется новый монстр. Теперь живущим в разных уголках планеты Вечным снова придётся сплотить силы, чтобы противостоять новой угрозе.


Доп. информация: Формат 3D: Анаглиф (Дюбуа)



Качество: 3D BDRip 1080p
Формат: MKV
Видео кодек: H.264
Аудио кодек: AC3
Видео: 1920 x 1080 (16:9), 7385 kbps, 23,976 fps, 0.149 bpp
Аудио#1: Русский | AC-3, 6 ch, 384 Kbps, 48.0 kHz iTunes
Аудио#2: Английский | AC-3, 6 ch, 640 Kbps, 48.0 kHz Original
Релиз от: Автор рипа: slaventi-69
x264 [info]: profile High, level 4.1
x264 [info]: frame I:1882 Avg QP: 9.72 size:160929
x264 [info]: frame P:58854 Avg QP:11.09 size: 71513
x264 [info]: frame B:163448 Avg QP:13.24 size: 25208
x264 [info]: consecutive B-frames: 2.8% 2.8% 18.9% 30.4% 45.1%

Общее
Уникальный идентификатор : 94626107259064626167677729250653630219 (0x4730534A142D937B53435479F495EF0B)
Полное имя : G:\60 FPS\Eternals.(2021).3D.(Anaglyph_Dubois).mkv
Формат : Matroska
Версия формата : Version 4
Размер файла : 9,16 Гбайт
Продолжительность : 2 ч. 35 м.
Общий поток : 8412 Кбит/сек
Название фильма : Вечные / Eternals (2021) in 3D (Anaglyph_Dubois)
Дата кодирования : UTC 2022-07-08 11:32:57
Программа кодирования : mkvmerge v25.0.0 ('Prog Noir') 64-bit
Библиотека кодирования : libebml v1.3.6 + libmatroska v1.4.9

Видео
Идентификатор : 1
Формат : AVC
Формат/Информация : Advanced Video Codec
Профиль формата : [email protected]
MultiView_Count : 2
MultiView_Layout : Anaglyph (cyan/red)
Настройки формата : CABAC / 4 Ref Frames
Параметр CABAC формата : Да
Параметр RefFrames формата : 4 кадра
Идентификатор кодека : V_MPEG4/ISO/AVC
Продолжительность : 2 ч. 35 м.
Битрейт : 7385 Кбит/сек
Ширина : 1920 пикселей
Высота : 1080 пикселей
Соотношение сторон : 16:9
Режим частоты кадров : Постоянный
Частота кадров : 23,976 кадра/сек
Цветовое пространство : YUV
Субдискретизация насыщенности : 4:2:0
Битовая глубина : 8 бит
Тип развёртки : Прогрессивная
Бит/(Пиксели*Кадры) : 0.149
Размер потока : 8,04 Гбайт (88%)
Заголовок : slaventi-69 ( R.G. HD-Films ) 3Д (Anaglyph_Dubois)
Библиотека кодирования : x264 core 130 r2273 b3065e6
Настройки программы : cabac=1 / ref=4 / deblock=1:-2:-2 / analyse=0x3:0x133 / me=umh / subme=9 / psy=1 / psy_rd=1.00:0.00 / mixed_ref=1 / me_range=32 / chroma_me=1 / trellis=2 / 8x8dct=1 / cqm=0 / deadzone=21,11 / fast_pskip=0 / chroma_qp_offset=-2 / threads=8 / lookahead_threads=4 / sliced_threads=0 / nr=0 / decimate=1 / interlaced=0 / bluray_compat=0 / constrained_intra=0 / bframes=4 / b_pyramid=2 / b_adapt=2 / b_bias=0 / direct=1 / weightb=1 / open_gop=0 / weightp=2 / keyint=600 / keyint_min=23 / scenecut=40 / intra_refresh=0 / rc=crf / mbtree=0 / crf=18.0 / qcomp=0.60 / qpmin=0 / qpmax=69 / qpstep=4 / ip_ratio=1.40 / pb_ratio=1.30 / aq=1:1.00
Язык : English
Default : Да
Forced : Нет

Аудио #1
Идентификатор : 2
Формат : AC-3
Формат/Информация : Audio Coding 3
Коммерческое название : Dolby Digital
Идентификатор кодека : A_AC3
Продолжительность : 2 ч. 35 м.
Вид битрейта : Постоянный
Битрейт : 384 Кбит/сек
Каналы : 6 каналов
Channel layout : L R C LFE Ls Rs
Частота : 48,0 КГц
Частота кадров : 31,250 кадров/сек (1536 SPF)
Битовая глубина : 16 бит
Метод сжатия : С потерями
Размер потока : 428 Мбайт (5%)
Заголовок : Дубляж ( iTunes )
Язык : Russian
ServiceKind/String : Complete Main
Default : Да
Forced : Нет

Аудио #2
Идентификатор : 3
Формат : AC-3
Формат/Информация : Audio Coding 3
Коммерческое название : Dolby Digital
Идентификатор кодека : A_AC3
Продолжительность : 2 ч. 35 м.
Вид битрейта : Постоянный
Битрейт : 640 Кбит/сек
Каналы : 6 каналов
Channel layout : L R C LFE Ls Rs
Частота : 48,0 КГц
Частота кадров : 31,250 кадров/сек (1536 SPF)
Битовая глубина : 16 бит
Метод сжатия : С потерями
Размер потока : 713 Мбайт (8%)
Заголовок : Original
Язык : English
ServiceKind/String : Complete Main
Default : Нет
Forced : Нет

Текст #1
Идентификатор : 4
Формат : UTF-8
Идентификатор кодека : S_TEXT/UTF8
Идентификатор кодека/Информация : UTF-8 Plain Text
Продолжительность : 2 ч. 33 м.
Битрейт : 65 бит/сек
ElementCount : 1542
Размер потока : 73,6 Кбайт (0%)
Заголовок : Full
Язык : Russian
Default : Нет
Forced : Нет

Текст #2
Идентификатор : 5
Формат : UTF-8
Идентификатор кодека : S_TEXT/UTF8
Идентификатор кодека/Информация : UTF-8 Plain Text
Продолжительность : 2 ч. 33 м.
Битрейт : 42 бит/сек
ElementCount : 1786
Размер потока : 47,2 Кбайт (0%)
Заголовок : Full
Язык : English
Default : Нет
Forced : Нет

Меню
00:00:00.000 : :Chapter 01
00:06:43.194 : :Chapter 02
00:20:22.888 : :Chapter 03
00:31:11.703 : :Chapter 04
00:35:04.436 : :Chapter 05
00:43:01.412 : :Chapter 06
00:55:50.097 : :Chapter 08
01:02:29.537 : :Chapter 09
01:07:56.531 : :Chapter 10
01:10:39.569 : :Chapter 11
01:18:58.275 : :Chapter 12
01:24:36.780 : :Chapter 13
01:29:56.516 : :Chapter 14
01:36:03.049 : :Chapter 15
01:42:47.578 : :Chapter 16
01:46:27.881 : :Chapter 17
01:51:51.163 : :Chapter 18
01:55:57.951 : :Chapter 19
02:01:46.132 : :Chapter 20
02:06:30.249 : :Chapter 21
02:11:41.894 : :Chapter 22
02:16:32.351 : :Chapter 23
02:23:10.665 : :Chapter 24
02:25:45.028 : :Chapter 25
02:27:56.493 : :Chapter 26
02:34:27.175 : :Chapter 27

Просьба к переливающим на другие сайты, в оформлении указывайте пожалуйста авторство группы R.G. HD-Films



Скачать Вечные в 3D через торрент https://i116.fastpic.org/big/2022/0121/6f/0aa58b9f2554f37975e979092837666f.jpg Скачать, смотреть онлайн Вечные в 3D бесплантно в хорошем качестве Описание: Много тысячелетий назад с планеты Олимпия на Землю была отправлена группа сверхлюдей, обладающих суперспособностями, — Вечные. С ... 8.5 10 6
Торрент: Зарегистрирован [2022-07-08 12:16] · скачан: 8 раз
Статус: √ проверено
Размер: 9.16 GB
Как cкачать? Как скачать Вечные в 3D через торрент | UTorrent

% Раздел Тема Автор DL S | L
3D Фильмы [ 15.72 GB ] Вечные в 3Д / Eternals 3D | iTunes | 1080p serega768 Скачать
2 | 0

28-11-2019 20:33  


Отключить вcю реклaмy на сайте, в т.ч. и в плеере онлайн просмотра!

    Дорогой пользователь! Огромная просьба, поблагодарите релизера, оцените раздачу и оставьте свои комментарий, если Вы скачали Вечные в 3D через торрент бесплатно!!
    Комментировать посты могут только пользователи прошедшие не сложную регистрацию
    Показать сообщения:    


    Вечные в 3D через торрент
    Скачать бесплатно Вечные в 3D
    Вечные в 3D скачать торрент
    Вечные в 3D смотреть онлайн
    Cкачать фильм Вечные в 3D бесплатно
    Вечные в 3D скачать торрент в хорошем качестве
    Вечные в 3D смотреть онлайн бесплатно в хорошем качестве
    Вы не можете начинать темы
    Вы не можете отвечать на сообщения
    Вы не можете редактировать свои сообщения
    Вы не можете удалять свои сообщения
    Вы не можете голосовать в опросах
    Вы не можете прикреплять файлы к сообщениям
    Вы можете скачивать файлы
    Вечные в 3D / Eternals in 3D [2021 г., фантастика, фэнтези, боевик, приключения, 3D BDRip 1080p, Дубляж iTunes] Анаглиф от R.G. HD-Films смотреть онлайн, скачать торрент picoco.icu