Доктор Стрэндж

Лицензия

Добыча

MVO

Дом дракона

1 сезон

Тор

Лицензия

Мэверик

Лицензия

Там, где раки поют

MVO

Властелин колец

1 сезон

Ultimate

pack

Рекомендуем

30

Repack

ВАЖНО

ВАЖНО

Ghostwire

RePack

jed

RePack

nioh2

RePack

RDR2

RePack

NEED FOR SPEED™ PAYBACK

RePack

скачать торрент

Кинопоиск HD

Острые козырьки 6 сезон

6 сезон

FAR CRY 6

RePack

скачать торрент

Лицензия

скачать торрент

MVO

1

1 сезон

скачать торрент

1 сезон

скачать торрент

Лицензия

  

Человек против пчелы / Man vs. Bee / Сезон: 1 / Серия: 1-9 из 9 (Дэвид Керр) [2022, Комедия, WEB-DLRip 1080p] 4 x MVO (LostFilm, HDrezka Studio, NewComers, RuDub)

Человек против пчелы через торрент pb.wtf

Раздают: 1 [ 0 KB/s ]
Размер: 6.04 GB | Добавлен: 2 мес. 15 д. назад | Торрент скачан:26 раз
Смотреть онлайн | Скачать   

25-06-2022 03:13 Человек против пчелы Скачать торрент  

Человек против пчелы / Man vs. Bee
  • Год выпуска: 2022
  • Страна: Великобритания
  • Студия:Netflix, HouseSitter Productions
  • Жанр: Комедия
  • Продолжительность: ~ 00:10:00 (Серия)
  • Перевод:
    Профессиональный многоголосый [LostFilm]
    Профессиональный многоголосый [HDrezka Studio]
    Профессиональный многоголосый [NewComers]
    Профессиональный многоголосый [RuDub]
  • Субтитры: Русские (Forced, Full)
    Режиссер: Дэвид Керр
  • В ролях:
    Роуэн Эткинсон, Дэниэл Фирн, Айша Кала, Чиззи Акудолу, Джин Лу, Тони МакКарти, Брендан Мерфи, Ли Байфорд
  • Описание:
    Добро пожаловать в роскошный особняк. За ним присматривает Тревор. Он воистину наслаждается своей повседневной жизнью, и чувствует, что по-настоящему счастлив. Кажется, что главному персонажу ничто не в силах помешать! Правда, именно в такой момент, когда не находишь причину для волнения, случаются самые безумные события. Так, например, Тревор сталкивается с неприятелем, который портит его жизнь на корню, тем самым заставляя вооружиться чем-нибудь потяжелее, чтобы ввязаться в борьбу с неприятелями. Его соперником в битве за спокойствие выступает пчела! Эта надоедливая вечно жужжащая и не сдающаяся незваная гостья устраивает настоящий ад в доме главного персонажа. Тот вооружается всем, что идёт под руку, начиная от столовых приборов, заканчивая инструментами, которыми Тревор чинит автомобиль. Особняк главного героя превращается в настоящее место для битвы. Причем главный персонаж не против того, чтобы уничтожить всё, дабы изгнать ненавистное насекомое из дома. В общем и целом, зрителей ждёт по-настоящему комичная история с исполнителем Роуэном Аткинсоном в лучших традициях знаменитого "Мистера Бина". Это будет весело, задорно и немножко больно. Нет, не от жала пчелы, а от разрушений, которые устроят оба действующих персонажа.
  • Рейтинг:

    rating


  • Качество: WEB-DLRip 1080p
  • Формат: :MKV
  • Видео кодек: AVC
  • Аудио кодек: AC3
  • Видео: 6316 Кбит/сек, 1920*1036 (1,85:1), в 25,000 кадров/сек, AVC
  • Аудио №2: Русский 384 Кбит/сек, 48,0 КГц, 16 бит, 2 канала, AC-3|[LostFilm]| | Серии - 1-9
  • Аудио №1: Русский 448 Кбит/сек, 48,0 КГц, 16 бит, 6 каналов, AC-3|[HDrezka Studio]| | Серии - 1-9
  • Аудио №2: Русский 256 Кбит/сек, 48,0 КГц, 16 бит, 2 канала, AC-3|[NewComers]| | Серии - 1-9
  • Аудио №2: Русский 256 Кбит/сек, 48,0 КГц, 16 бит, 2 канала, AC-3|[RuDub]| | Серии - 1-9
  • Аудио №3: Английский 640 Кбит/сек, 48,0 КГц, 16 бит, 6 каналов, AC-3
    Общее
    Уникальный идентификатор : 127794455487660920118806349261306964335 (0x6024511D695BFD2AA864DA14E831A96F)
    Полное имя : F:\Человек против пчелы (Man vs. Bee) Сезон 1\Человек против пчелы - Man vs. Bee.S01E01.(2022).WEB-DLRip 1080p HDrezka Studio NewComers RuDub.mkv
    Формат : Matroska
    Версия формата : Version 4
    Размер файла : 1,01 Гбайт
    Продолжительность : 18 м. 17 с.
    Режим общего битрейта : Переменный
    Общий поток : 7920 Кбит/сек
    Название фильма : Man.Vs.Bee.S01E01.Chapter 1.WEB-DLRip [email protected]
    Дата кодирования : UTC 2022-06-27 23:10:47
    Программа кодирования : mkvmerge v67.0.0 ('Under Stars') 64-bit
    Библиотека кодирования : libebml v1.4.2 + libmatroska v1.6.4
    Обложка : Yes
    Attachments : Cover_Man.vs.Bee.jpg

    Видео
    Идентификатор : 1
    Формат : AVC
    Формат/Информация : Advanced Video Codec
    Профиль формата : [email protected]
    Настройки формата : CABAC / 4 Ref Frames
    Параметр CABAC формата : Да
    Параметр RefFrames формата : 4 кадра
    Идентификатор кодека : V_MPEG4/ISO/AVC
    Продолжительность : 18 м. 17 с.
    Вид битрейта : Переменный
    Битрейт : 6316 Кбит/сек
    Максимальный битрейт : 15,0 Мбит/сек
    Ширина : 1920 пикселей
    Высота : 1036 пикселей
    Соотношение сторон : 1,85:1
    Режим частоты кадров : Постоянный
    Частота кадров : 25,000 кадров/сек
    Цветовое пространство : YUV
    Субдискретизация насыщенности : 4:2:0
    Битовая глубина : 8 бит
    Тип развёртки : Прогрессивная
    Бит/(Пиксели*Кадры) : 0.127
    Размер потока : 827 Мбайт (80%)
    Библиотека кодирования : x264 core 157 r2935 545de2f
    Настройки программы : cabac=1 / ref=4 / deblock=1:-1:-1 / analyse=0x3:0x113 / me=umh / subme=9 / psy=1 / psy_rd=1.00:0.15 / mixed_ref=1 / me_range=24 / chroma_me=1 / trellis=2 / 8x8dct=1 / cqm=0 / deadzone=21,11 / fast_pskip=0 / chroma_qp_offset=-3 / threads=18 / lookahead_threads=3 / sliced_threads=0 / nr=0 / decimate=1 / interlaced=0 / bluray_compat=0 / constrained_intra=0 / bframes=8 / b_pyramid=2 / b_adapt=2 / b_bias=0 / direct=3 / weightb=1 / open_gop=0 / weightp=2 / keyint=120 / keyint_min=61 / scenecut=40 / intra_refresh=0 / rc_lookahead=120 / rc=crf / mbtree=1 / crf=18.0 / qcomp=0.60 / qpmin=0 / qpmax=69 / qpstep=4 / vbv_maxrate=15000 / vbv_bufsize=31250 / crf_max=0.0 / nal_hrd=vbr / filler=0 / ip_ratio=1.40 / aq=3:1.00
    Язык : English
    Default : Да
    Forced : Нет
    Цветовой диапазон : Limited
    Основные цвета : BT.709
    Характеристики трансфера : BT.709
    Коэффициенты матрицы : BT.709

    Аудио #1
    Идентификатор : 2
    Формат : AC-3
    Формат/Информация : Audio Coding 3
    Коммерческое название : Dolby Digital
    Идентификатор кодека : A_AC3
    Продолжительность : 18 м. 17 с.
    Вид битрейта : Постоянный
    Битрейт : 448 Кбит/сек
    Каналы : 6 каналов
    ChannelLayout : L R C LFE Ls Rs
    Частота : 48,0 КГц
    Частота кадров : 31,250 кадров/сек (1536 SPF)
    Битовая глубина : 16 бит
    Метод сжатия : С потерями
    Размер потока : 58,6 Мбайт (6%)
    Заголовок : HDRezka Studio
    Язык : Russian
    ServiceKind/String : Complete Main
    Default : Да
    Forced : Нет

    Аудио #2
    Идентификатор : 3
    Формат : AC-3
    Формат/Информация : Audio Coding 3
    Коммерческое название : Dolby Digital
    Идентификатор кодека : A_AC3
    Продолжительность : 18 м. 17 с.
    Вид битрейта : Постоянный
    Битрейт : 256 Кбит/сек
    Каналы : 2 канала
    ChannelLayout : L R
    Частота : 48,0 КГц
    Частота кадров : 31,250 кадров/сек (1536 SPF)
    Битовая глубина : 16 бит
    Метод сжатия : С потерями
    Размер потока : 33,5 Мбайт (3%)
    Заголовок : NewComers
    Язык : Russian
    ServiceKind/String : Complete Main
    Default : Нет
    Forced : Нет

    Аудио #3
    Идентификатор : 4
    Формат : AC-3
    Формат/Информация : Audio Coding 3
    Коммерческое название : Dolby Digital
    Идентификатор кодека : A_AC3
    Продолжительность : 18 м. 17 с.
    Вид битрейта : Постоянный
    Битрейт : 256 Кбит/сек
    Каналы : 2 канала
    ChannelLayout : L R
    Частота : 48,0 КГц
    Частота кадров : 31,250 кадров/сек (1536 SPF)
    Битовая глубина : 16 бит
    Метод сжатия : С потерями
    Размер потока : 33,5 Мбайт (3%)
    Заголовок : RuDub
    Язык : Russian
    ServiceKind/String : Complete Main
    Default : Нет
    Forced : Нет

    Аудио #4
    Идентификатор : 5
    Формат : AC-3
    Формат/Информация : Audio Coding 3
    Коммерческое название : Dolby Digital
    Идентификатор кодека : A_AC3
    Продолжительность : 18 м. 17 с.
    Вид битрейта : Постоянный
    Битрейт : 640 Кбит/сек
    Каналы : 6 каналов
    ChannelLayout : L R C LFE Ls Rs
    Частота : 48,0 КГц
    Частота кадров : 31,250 кадров/сек (1536 SPF)
    Битовая глубина : 16 бит
    Метод сжатия : С потерями
    Размер потока : 83,8 Мбайт (8%)
    Язык : English
    ServiceKind/String : Complete Main
    Default : Нет
    Forced : Нет

    Текст #1
    Идентификатор : 6
    Формат : UTF-8
    Идентификатор кодека : S_TEXT/UTF8
    Идентификатор кодека/Информация : UTF-8 Plain Text
    Продолжительность : 7 м. 1 с.
    Битрейт : 0 бит/сек
    ElementCount : 2
    Размер потока : 22,0 байт (0%)
    Заголовок : Forced
    Язык : Russian
    Default : Да
    Forced : Да

    Текст #2
    Идентификатор : 7
    Формат : UTF-8
    Идентификатор кодека : S_TEXT/UTF8
    Идентификатор кодека/Информация : UTF-8 Plain Text
    Продолжительность : 18 м. 4 с.
    Битрейт : 57 бит/сек
    ElementCount : 171
    Размер потока : 7,55 Кбайт (0%)
    Язык : Russian
    Default : Нет
    Forced : Нет
    Внимание! Раздача ведётся путём добавления новых серий; при каждом добавлении создаётся новый торрент. Чтобы начать докачку новой серии, пользователям необходимо сделать следующее:
    (1) остановить скачивание,
    (2) удалить старый торрент у себя из клиента (старые серии удалять не надо),
    (3) скачать новый торрент и запустить его у себя в клиенте вместо старого, при этом указать клиенту путь в старую папку куда и должно происходить скачивание новых серий.

    Ваш клиент при этом должен произвести хеширование (проверку) старой папки (если не производит сам - помогите ему сделать это), и будет докачивать только те серии которых у вас ещё нет. Старые серии при этом не удаляются, а продолжают раздаваться!

    Eсли вы уже удалили старые серии, то предотвратить повторную закачку старых серий можно, отжав галочку в соответствующих местах при запуске нового торрента. По возможности, желательно не удалять старые серии как можно дольше чтобы релизёр не столько продолжал раздавать старые серии, а смог сконцентрироваться на новых.



    Скриншоты:
    скриншот   скриншот   скриншот   скриншот   скриншот   скриншот   скриншот   
    скриншот  



  • Скачать Человек против пчелы через торрент https://i6-imageban-ru.translate.goog/out/2022/06/25/b71ed7ba8de8a0de9761594e6f3c4056.png Скачать, смотреть онлайн Человек против пчелы бесплантно в хорошем качестве Описание: Добро пожаловать в роскошный особняк. За ним присматривает Тревор. Он воистину наслаждается своей повседневной жизнью, и ... 9.7 10 28
    Info! Золотая раздача, скачанное не засчитывается.
    Торрент: Зарегистрирован [2022-07-22 23:00] · скачан: 26 раз
    Статус: √ проверено
    Размер: 6.04 GB
    Как cкачать? Как скачать Человек против пчелы через торрент | UTorrent

    % Раздел Тема Автор DL S | L
    Зарубежные сериалы [ 1.55 GB ] Человек против пчелы / Man vs. Bee / Сезон: 1 / Серии: 1-9 из 9 | MVO | DLRip bober100 Скачать
    1 | 0
    Зарубежные сериалы [ 6.02 GB ] Человек против пчелы / Man vs. Bee / Сезон: 1 / Серии: 1-9 из 9 | NewComers | 1080p bober100 Скачать
    1 | 0
    Зарубежные сериалы [ 3.79 GB ] Человек против пчелы / Man vs. Bee / Сезон: 1 / Серия: 1-9 из 9 | HDRezka Studio | 1080p killermax2013 Скачать
    1 | 0
    Зарубежные сериалы [ 1.59 GB ] Человек против пчелы / Man vs. Bee / Сезон: 1 / Серия: 1-9 из 9 | NewComers | WEBRip GEKADOL Скачать
    3 | 0



    Последний раз редактировалось: GEKADOL (2022-07-22 23:00), всего редактировалось 11 раз(а)

    28-11-2019 20:33  


    Отключить вcю реклaмy на сайте, в т.ч. и в плеере онлайн просмотра!

    26-06-2022 17:34 Человек против пчелы Скачать торрент  

    перевод нетфликса или квк ждём, или сразу в ждерешке смотреть?



    28-06-2022 12:24 Человек против пчелы Скачать торрент  

    объясните на кой хрен надо было делить на серии по 10 минут? или я чего то непонимаю?



    29-06-2022 13:56 Человек против пчелы Скачать торрент  

    вадим89765 писал(а):

    объясните на кой хрен надо было делить на серии по 10 минут? или я чего то непонимаю?

    Спроси у нетфликса.



    01-07-2022 20:19 Человек против пчелы Скачать торрент  

    норм и с таким бублом..



    04-07-2022 15:48 Человек против пчелы Скачать торрент  

    такой шлак, смеяться не над чем просто время зря потратил



    16-07-2022 06:18 Человек против пчелы Скачать торрент  

    мне тоже показался нифига не смешным.
    то, что серии коротенькие, кстати, весьма удобно... можно не останавливая сходить поссать или чаю налить



    21-07-2022 04:09 Человек против пчелы Скачать торрент  

    Очень жаль Роуэна Эткинсона, он так и остался заложником образа мистера Бина, только вот постаревший Бин совершенно не смешной.



    04-10-2022 14:46 Человек против пчелы Скачать торрент  

    вадим89765 писал(а):

    такой шлак, смеяться не над чем просто время зря потратил

    Это классика Бина, он и тогда не особо смешной был, только отдельные моменты.



      Дорогой пользователь! Огромная просьба, поблагодарите релизера, оцените раздачу и оставьте свои комментарий, если Вы скачали Человек против пчелы через торрент бесплатно!!
      Комментировать посты могут только пользователи прошедшие не сложную регистрацию
      Показать сообщения:    


      Человек против пчелы через торрент
      Скачать бесплатно Человек против пчелы
      Человек против пчелы скачать торрент
      Человек против пчелы смотреть онлайн
      Cкачать фильм Человек против пчелы бесплатно
      Человек против пчелы скачать торрент в хорошем качестве
      Человек против пчелы смотреть онлайн бесплатно в хорошем качестве
      Вы не можете начинать темы
      Вы не можете отвечать на сообщения
      Вы не можете редактировать свои сообщения
      Вы не можете удалять свои сообщения
      Вы не можете голосовать в опросах
      Вы не можете прикреплять файлы к сообщениям
      Вы можете скачивать файлы