Доктор Стрэндж

Лицензия

Добыча

Дубляж

Уэнсдэй

1 сезон

Тор

Дубляж

В эфире

Дубляж

Там, где раки поют

MVO

Властелин колец

1 сезон

Deluxe

pack

Рекомендуем

30

Пиратка

ВАЖНО

ВАЖНО

Ghostwire

Пиратка

jed

RePack

nioh2

RePack

RDR2

RePack

NEED FOR SPEED™ PAYBACK

RePack

скачать торрент

Кинопоиск HD

Острые козырьки 6 сезон

6 сезон

FAR CRY 6

RePack

скачать торрент

Лицензия

скачать торрент

MVO

1

1 сезон

скачать торрент

1 сезон

скачать торрент

Лицензия

  

Закусочная Боба. Фильм / The Bob's Burgers Movie (Лорен Бушар, Бернард Дерриман) [2022, Мультфильм, мюзикл, комедия, приключения, HDRip-AVC] MVO [TVShows] от ExKinoRay

Закусочная Боба. Фильм через торрент pb.wtf

Размер: 1.94 GB | Добавлен: 4 мес. 19 д. назад | Торрент скачан:47 раз
Смотреть онлайн | Скачать   

16-07-2022 17:41 Закусочная Боба. Фильм Скачать торрент  


Закусочная Боба. Фильм / The Bob's Burgers Movie
Информация Описание:
Название: Закусочная Боба. Фильм
Оригинальное название: The Bob's Burgers Movie
Год выхода: 2022
Жанр: Мультфильм, мюзикл, комедия, приключения
Режиссер: Лорен Бушар, Бернард Дерриман
В ролях: Х. Джон Бенжамин, Джон Робертс, Дэн Минтц, Юджин Мирман, Кристен Шаал, Дэвид Уэйн, Зак Галифианакис, Кевин Клайн, Ларри Мерфи, Гэри Коул

Описание: Ничто так не объединяет семью как мелкие неудачи. У скромной закусочной Боба появились новые конкуренты, и теперь хозяину заведения приходится буквально из кожи вон лезть, чтобы удержаться на плаву. Неожиданным подспорьем для Боба могут оказаться собственные непутевые отпрыски, способные как следует попортить нервы Джимми Престо, мозолящему глаза своей пиццерией напротив.



Страна: США
Студия: 20th Century Fox Animation, 20th Century Studios, Bento Box Entertainment, Buck & Millie Productions, Fox Animation Studios, Fox Family Films, Twentieth Century
Продолжительность: 01:41:54
Перевод: Профессиональный (многоголосый, закадровый) - TVShows



Информация о файле:
Кодек: AVC
Формат: MKV
Качество: HDRip-AVC
Видео: MPEG-4 AVC, 1024x428, 23.976 fps, 2150 kbps
Аудио RU: AC3, 2 ch, 48 kHz, 192 kbps
Аудио EN: AC3, 6 ch, 48 kHz, 384 kbps
Субтитры: Английские



x264 info: frame I:1505 Avg QP: 9.61 size:115459
x264 info: frame P:39013 Avg QP:10.74 size: 22772
x264 info: frame B:106060 Avg QP:12.43 size: 5600
General
Unique ID : 327893823933718755070198456210463650612 (0xF6AE0DAC3C58161862E03E67655FF334)
Complete name : D:uTorrentРипы wolf1245The Bob's Burgers Movie.2022.MVO.TVShows.x264.WEB-DLRip-AVC.[wolf1245.ExKinoRay].mkv
Format : Matroska
Format version : Version 4
File size : 1.94 GiB
Duration : 1 h 41 min
Overall bit rate : 2 727 kb/s
Movie name : The Bob's Burgers Movie.2022.MVO.TVShows.x264.WEB-DLRip-AVC.[wolf1245.ExKinoRay]
Encoded date : UTC 2022-07-16 17:29:59
Writing application : mkvmerge v69.0.0 ('Day And Age') 64-bit
Writing library : libebml v1.4.2 + libmatroska v1.6.4
Video
ID : 1
Format : AVC
Format/Info : Advanced Video Codec
Format profile : [email protected]
Format settings : CABAC / 10 Ref Frames
Format settings, CABAC : Yes
Format settings, Reference frames : 10 frames
Codec ID : V_MPEG4/ISO/AVC
Duration : 1 h 41 min
Bit rate : 2 150 kb/s
Width : 1 024 pixels
Height : 428 pixels
Display aspect ratio : 2.40:1
Frame rate mode : Constant
Frame rate : 23.976 (24000/1001) FPS
Color space : YUV
Chroma subsampling : 4:2:0
Bit depth : 8 bits
Scan type : Progressive
Bits/(Pixel*Frame) : 0.205
Stream size : 1.53 GiB (79%)
Title : -=[wolf1245.ExKinoRay]=-
Writing library : x264 core 163 r3060 5db6aa6
Encoding settings : cabac=1 / ref=10 / deblock=1:-2:-2 / analyse=0x3:0x133 / me=umh / subme=10 / psy=1 / psy_rd=0.98:0.15 / mixed_ref=1 / me_range=32 / chroma_me=1 / trellis=2 / 8x8dct=1 / cqm=0 / deadzone=22,11 / fast_pskip=1 / chroma_qp_offset=-3 / threads=10 / lookahead_threads=2 / sliced_threads=0 / nr=0 / decimate=0 / interlaced=0 / bluray_compat=0 / constrained_intra=0 / bframes=10 / b_pyramid=2 / b_adapt=2 / b_bias=0 / direct=3 / weightb=1 / open_gop=0 / weightp=2 / keyint=240 / keyint_min=24 / scenecut=40 / intra_refresh=0 / rc_lookahead=150 / rc=2pass / mbtree=0 / bitrate=2150 / ratetol=1.0 / qcomp=0.70 / qpmin=0 / qpmax=69 / qpstep=4 / cplxblur=20.0 / qblur=0.5 / vbv_maxrate=50000 / vbv_bufsize=62500 / nal_hrd=none / filler=0 / ip_ratio=1.35 / pb_ratio=1.25 / aq=3:0.80
Language : English
Default : Yes
Forced : No
Audio #1
ID : 2
Format : AC-3
Format/Info : Audio Coding 3
Commercial name : Dolby Digital
Codec ID : A_AC3
Duration : 1 h 41 min
Bit rate mode : Constant
Bit rate : 192 kb/s
Channel(s) : 2 channels
Channel layout : L R
Sampling rate : 48.0 kHz
Frame rate : 31.250 FPS (1536 SPF)
Compression mode : Lossy
Stream size : 140 MiB (7%)
Title : MVO | TVShows | RUS
Language : Russian
Service kind : Complete Main
Default : Yes
Forced : No
Audio #2
ID : 3
Format : AC-3
Format/Info : Audio Coding 3
Commercial name : Dolby Digital
Codec ID : A_AC3
Duration : 1 h 41 min
Bit rate mode : Constant
Bit rate : 384 kb/s
Channel(s) : 6 channels
Channel layout : L R C LFE Ls Rs
Sampling rate : 48.0 kHz
Frame rate : 31.250 FPS (1536 SPF)
Compression mode : Lossy
Stream size : 280 MiB (14%)
Title : Original | ENG
Language : English
Service kind : Complete Main
Default : No
Forced : No
Text
ID : 4
Format : UTF-8
Codec ID : S_TEXT/UTF8
Codec ID/Info : UTF-8 Plain Text
Duration : 1 h 41 min
Bit rate : 125 b/s
Count of elements : 2925
Stream size : 93.5 KiB (0%)
Title : SDH
Language : English
Default : No
Forced : No
Menu
00:00:00.000 : :Chapter 01
00:03:03.683 : :Chapter 02
00:06:41.901 : :Chapter 03
00:10:08.274 : :Chapter 04
00:14:57.271 : :Chapter 05
00:22:05.533 : :Chapter 06
00:27:51.086 : :Chapter 07
00:33:03.190 : :Chapter 08
00:42:01.686 : :Chapter 09
00:51:11.902 : :Chapter 10
01:03:56.124 : :Chapter 11
01:12:04.820 : :Chapter 12
01:25:49.519 : :Chapter 13
01:34:36.045 : :Chapter 14
Релиз от:
Автор релиза:



Скачать Закусочная Боба. Фильм через торрент http://i120.fastpic.org/big/2022/0716/ea/064b57093ae1781caf7aaccfd12fefea.jpg Скачать, смотреть онлайн Закусочная Боба. Фильм бесплантно в хорошем качестве Описание: Название: Закусочная Боба. Фильм Оригинальное название: The Bob's Burgers Movie Год выхода: 2022 Жанр: Мультфильм, мюзикл, ... 10 10 2
Торрент: Зарегистрирован [2022-07-16 17:41] · скачан: 47 раз
Статус: √ проверено
Размер: 1.94 GB
Как cкачать? Как скачать Закусочная Боба. Фильм через торрент | UTorrent

% Раздел Тема Автор DL S | L
Иностранные мультфильмы [ 1.46 GB ] Закусочная Боба. Фильм / The Bob's Burgers Movie | Jaskier | BDRip bober100 Скачать
1 | 0

28-11-2019 20:33  


Отключить вcю реклaмy на сайте, в т.ч. и в плеере онлайн просмотра!

    Дорогой пользователь! Огромная просьба, поблагодарите релизера, оцените раздачу и оставьте свои комментарий, если Вы скачали Закусочная Боба. Фильм через торрент бесплатно!!
    Комментировать посты могут только пользователи прошедшие не сложную регистрацию
    Показать сообщения:    


    Закусочная Боба. Фильм через торрент
    Скачать бесплатно Закусочная Боба. Фильм
    Закусочная Боба. Фильм скачать торрент
    Закусочная Боба. Фильм смотреть онлайн
    Cкачать фильм Закусочная Боба. Фильм бесплатно
    Закусочная Боба. Фильм скачать торрент в хорошем качестве
    Закусочная Боба. Фильм смотреть онлайн бесплатно в хорошем качестве
    Вы не можете начинать темы
    Вы не можете отвечать на сообщения
    Вы не можете редактировать свои сообщения
    Вы не можете удалять свои сообщения
    Вы не можете голосовать в опросах
    Вы не можете прикреплять файлы к сообщениям
    Вы можете скачивать файлы
    Закусочная Боба. Фильм / The Bob's Burgers Movie [2022, Мультфильм, мюзикл, комедия, приключения, HDRip-AVC] MVO [TVShows] от ExKinoRay смотреть онлайн, скачать торрент picoco.icu