Доктор Стрэндж

Лицензия

Добыча

Дубляж

Уэнсдэй

1 сезон

Тор

Дубляж

В эфире

Дубляж

Там, где раки поют

MVO

Властелин колец

1 сезон

Deluxe

pack

Рекомендуем

30

Пиратка

ВАЖНО

ВАЖНО

Ghostwire

Пиратка

jed

RePack

nioh2

RePack

RDR2

RePack

NEED FOR SPEED™ PAYBACK

RePack

скачать торрент

Кинопоиск HD

Острые козырьки 6 сезон

6 сезон

FAR CRY 6

RePack

скачать торрент

Лицензия

скачать торрент

MVO

1

1 сезон

скачать торрент

1 сезон

скачать торрент

Лицензия

  

Бегущий по лезвию 2049 в 3D / Blade Runner 2049 in 3D (Дени Вильнёв) [2017 г., фантастика, триллер, драма, детектив, 3D BDRip 1080p , Дубляж] Анаглиф (Дюбуа) от R.G. HD-Films

Бегущий по лезвию 2049 в 3D через торрент pb.wtf

Размер: 9.98 GB | Добавлен: 4 мес. 11 д. назад | Торрент скачан:2 раза
Смотреть онлайн | Скачать   

25-07-2022 11:34 Бегущий по лезвию 2049 в 3D Скачать торрент  

Бегущий по лезвию 2049 в 3D / Blade Runner 2049 in 3D
Год выпуска: 2017
Страна: США, Великобритания, Венгрия, Канада
Жанр: фантастика, триллер, драма, детектив
Продолжительность: 02:43:27
Перевод: Дубляж
Субтитры: Русские (Forced вшитые, full), украинские, английские

Режиссер: Дени Вильнёв

Бюджет: $150 000 000
Премьера в мире: 3 октября 2017

rating

В ролях: Райан Гослинг («K»), Харрисон Форд (Rick Deckard), Ана де Армас (Joi), Сильвия Хукс (Luv), Робин Райт (Lieutenant Joshi), Маккензи Дэвис (Mariette), Карла Юри (Dr. Ana Stelline), Ленни Джеймс (Mister Cotton), Дэйв Батиста (Sapper Morton), Джаред Лето (Niander Wallace), Давид Дастмалчян (Coco), Баркхад Абди (Doc Badger)

Описание: В недалеком будущем мир населен людьми и репликантами, созданными выполнять самую тяжелую работу. Работа офицера полиции Кей — держать репликантов под контролем в условиях нарастающего напряжения… Пока он случайно не становится обладателем секретной информации, которая ставит под угрозу существование всего человечества. Желая найти ключ к разгадке, Кей решает разыскать Рика Декарда, бывшего офицера специального подразделения полиции Лос-Анджелеса, который бесследно исчез много лет назад.

Доп. информация: Формат 3D: Анаглиф (Дюбуа)



Качество: 3D BDRip 1080p
Формат: MKV
Видео кодек: H.264
Аудио кодек: AC3
Видео: 1920 x 1080 (16:9), 7269 kbps, 23,976 fps, 0.146 bpp
Аудио#1: Русский / AC3 / 48 KHz / 5.1 ch / 640 Kbps (Дубляж - BD Eur)
Аудио#2: Украинский / AC3 / 48 KHz / 2 ch / 192 Kbps (Дубляж - iTunes)
Аудио#3: Английский / AC3 / 48 KHz / 5.1 ch / 640 Kbps (Original)
Релиз от: Автор рипа: slaventi-69
x264 [info]: profile High, level 4.1
x264 [info]: frame I:1350 Avg QP: 8.21 size:178885
x264 [info]: frame P:53716 Avg QP: 9.29 size: 77210
x264 [info]: frame B:180088 Avg QP:11.35 size: 25115
x264 [info]: consecutive B-frames: 1.6% 1.9% 8.0% 35.4% 15.4% 37.7%


Общее
Уникальный идентификатор : 55188227315345721099754309314630374054 (0x2984DDAF52076858B18DDFC32A9BD2A6)
Полное имя : G:\60 FPS\Blade.Runner.2049.(2017).3D.(Anaglyph_Dubois).mkv
Формат : Matroska
Версия формата : Version 4
Размер файла : 9,98 Гбайт
Продолжительность : 2 ч. 43 м.
Общий поток : 8744 Кбит/сек
Название фильма : Бегущий по лезвию 2049 / Blade Runner 2049 (2017) in 3D (Anaglyph_Dubois)
Дата кодирования : UTC 2022-07-25 10:24:03
Программа кодирования : mkvmerge v25.0.0 ('Prog Noir') 64-bit
Библиотека кодирования : libebml v1.3.6 + libmatroska v1.4.9

Видео
Идентификатор : 1
Формат : AVC
Формат/Информация : Advanced Video Codec
Профиль формата : [email protected]
Настройки формата : CABAC / 9 Ref Frames
Параметр CABAC формата : Да
Параметр RefFrames формата : 9 кадров
Идентификатор кодека : V_MPEG4/ISO/AVC
Продолжительность : 2 ч. 43 м.
Битрейт : 7269 Кбит/сек
Ширина : 1920 пикселей
Высота : 1080 пикселей
Соотношение сторон : 16:9
Режим частоты кадров : Постоянный
Частота кадров : 23,976 кадра/сек
Цветовое пространство : YUV
Субдискретизация насыщенности : 4:2:0
Битовая глубина : 8 бит
Тип развёртки : Прогрессивная
Бит/(Пиксели*Кадры) : 0.146
Размер потока : 8,30 Гбайт (83%)
Заголовок : slaventi-69 ( R.G. HD-Films ) 3Д (Anaglyph_Dubois)
Библиотека кодирования : x264 core 130 r2273 b3065e6
Настройки программы : cabac=1 / ref=9 / deblock=1:-3:-3 / analyse=0x3:0x133 / me=umh / subme=9 / psy=1 / psy_rd=1.00:0.00 / mixed_ref=1 / me_range=32 / chroma_me=1 / trellis=2 / 8x8dct=1 / cqm=0 / deadzone=21,11 / fast_pskip=0 / chroma_qp_offset=-2 / threads=8 / lookahead_threads=4 / sliced_threads=0 / nr=0 / decimate=1 / interlaced=0 / bluray_compat=0 / constrained_intra=0 / bframes=5 / b_pyramid=2 / b_adapt=2 / b_bias=0 / direct=1 / weightb=1 / open_gop=0 / weightp=2 / keyint=600 / keyint_min=23 / scenecut=40 / intra_refresh=0 / rc=crf / mbtree=0 / crf=17.0 / qcomp=0.60 / qpmin=0 / qpmax=69 / qpstep=4 / ip_ratio=1.40 / pb_ratio=1.30 / aq=1:1.00
Язык : English
Default : Да
Forced : Нет

Аудио #1
Идентификатор : 2
Формат : AC-3
Формат/Информация : Audio Coding 3
Коммерческое название : Dolby Digital
Идентификатор кодека : A_AC3
Продолжительность : 2 ч. 43 м.
Вид битрейта : Постоянный
Битрейт : 640 Кбит/сек
Каналы : 6 каналов
Channel layout : L R C LFE Ls Rs
Частота : 48,0 КГц
Частота кадров : 31,250 кадров/сек (1536 SPF)
Битовая глубина : 16 бит
Метод сжатия : С потерями
Размер потока : 748 Мбайт (7%)
Заголовок : Дубляж - BD Eur
Язык : Russian
ServiceKind/String : Complete Main
Default : Да
Forced : Нет

Аудио #2
Идентификатор : 3
Формат : AC-3
Формат/Информация : Audio Coding 3
Коммерческое название : Dolby Digital
Идентификатор кодека : A_AC3
Продолжительность : 2 ч. 43 м.
Вид битрейта : Постоянный
Битрейт : 192 Кбит/сек
Каналы : 2 канала
Channel layout : L R
Частота : 48,0 КГц
Частота кадров : 31,250 кадров/сек (1536 SPF)
Битовая глубина : 16 бит
Метод сжатия : С потерями
Размер потока : 224 Мбайт (2%)
Заголовок : Дубляж - iTunes
Язык : Ukrainian
ServiceKind/String : Complete Main
Default : Нет
Forced : Нет

Аудио #3
Идентификатор : 4
Формат : AC-3
Формат/Информация : Audio Coding 3
Коммерческое название : Dolby Digital
Идентификатор кодека : A_AC3
Продолжительность : 2 ч. 43 м.
Вид битрейта : Постоянный
Битрейт : 640 Кбит/сек
Каналы : 6 каналов
Channel layout : L R C LFE Ls Rs
Частота : 48,0 КГц
Частота кадров : 31,250 кадров/сек (1536 SPF)
Битовая глубина : 16 бит
Метод сжатия : С потерями
Размер потока : 748 Мбайт (7%)
Заголовок : Original
Язык : English
ServiceKind/String : Complete Main
Default : Нет
Forced : Нет

Текст #1
Идентификатор : 5
Формат : UTF-8
Идентификатор кодека : S_TEXT/UTF8
Идентификатор кодека/Информация : UTF-8 Plain Text
Продолжительность : 2 ч. 42 м.
Битрейт : 39 бит/сек
ElementCount : 1071
Размер потока : 47,5 Кбайт (0%)
Заголовок : Полные
Язык : Russian
Default : Нет
Forced : Нет

Текст #2
Идентификатор : 6
Формат : UTF-8
Идентификатор кодека : S_TEXT/UTF8
Идентификатор кодека/Информация : UTF-8 Plain Text
Продолжительность : 2 ч. 40 м.
Битрейт : 1 бит/сек
ElementCount : 44
Размер потока : 1,90 Кбайт (0%)
Заголовок : Форсированные [расширенные]
Язык : Ukrainian
Default : Нет
Forced : Нет

Текст #3
Идентификатор : 7
Формат : UTF-8
Идентификатор кодека : S_TEXT/UTF8
Идентификатор кодека/Информация : UTF-8 Plain Text
Продолжительность : 2 ч. 42 м.
Битрейт : 39 бит/сек
ElementCount : 1052
Размер потока : 46,6 Кбайт (0%)
Заголовок : Полные
Язык : Ukrainian
Default : Нет
Forced : Нет

Текст #4
Идентификатор : 8
Формат : UTF-8
Идентификатор кодека : S_TEXT/UTF8
Идентификатор кодека/Информация : UTF-8 Plain Text
Продолжительность : 2 ч. 26 м.
Битрейт : 24 бит/сек
ElementCount : 974
Размер потока : 26,6 Кбайт (0%)
Заголовок : Full
Язык : English
Default : Нет
Forced : Нет

Меню
00:00:00.000 : :1
00:12:36.172 : :2
00:23:29.279 : :3
00:37:00.885 : :4
00:42:50.317 : :5
00:49:24.503 : :6
00:58:35.552 : :7
01:04:10.679 : :8
01:15:47.292 : :9
01:25:12.479 : :10
01:36:15.060 : :11
01:50:55.104 : :12
02:01:36.872 : :13
02:08:40.377 : :14
02:16:42.485 : :15
02:27:46.729 : :16

Просьба к переливающим на другие сайты, в оформлении указывайте пожалуйста авторство группы R.G. HD-Films



Скачать Бегущий по лезвию 2049 в 3D через торрент http://i102.fastpic.ru/big/2018/0106/1b/f29f276c448e601c62449852c8b6be1b.png Скачать, смотреть онлайн Бегущий по лезвию 2049 в 3D бесплантно в хорошем качестве Описание: В недалеком будущем мир населен людьми и репликантами, созданными выполнять самую тяжелую работу. Работа офицера полиции Кей — ... 10 10 1
Торрент: Зарегистрирован [2022-07-25 11:34] · скачан: 2 раз
Статус: √ проверено
Размер: 9.98 GB
Как cкачать? Как скачать Бегущий по лезвию 2049 в 3D через торрент | UTorrent

% Раздел Тема Автор DL S | L
3D Фильмы [ 19.58 GB ] Бегущий по лезвию 2049 в 3Д / Blade Runner 2049 3D | Лицензия | 1080p bober100 Скачать
1 | 0
3D Фильмы [ 16.74 GB ] Бегущий по лезвию 2049 в 3Д / Blade Runner 2049 3D | | 1080p serega768 Скачать
1 | 0
3D Фильмы [ 10.82 GB ] Бегущий по лезвию 2049 в 3Д / Blade Runner 2049 3D | Лицензия | 1080p bober100 Скачать
1 | 0

28-11-2019 20:33  


Отключить вcю реклaмy на сайте, в т.ч. и в плеере онлайн просмотра!

    Дорогой пользователь! Огромная просьба, поблагодарите релизера, оцените раздачу и оставьте свои комментарий, если Вы скачали Бегущий по лезвию 2049 в 3D через торрент бесплатно!!
    Комментировать посты могут только пользователи прошедшие не сложную регистрацию
    Показать сообщения:    


    Бегущий по лезвию 2049 в 3D через торрент
    Скачать бесплатно Бегущий по лезвию 2049 в 3D
    Бегущий по лезвию 2049 в 3D скачать торрент
    Бегущий по лезвию 2049 в 3D смотреть онлайн
    Cкачать фильм Бегущий по лезвию 2049 в 3D бесплатно
    Бегущий по лезвию 2049 в 3D скачать торрент в хорошем качестве
    Бегущий по лезвию 2049 в 3D смотреть онлайн бесплатно в хорошем качестве
    Вы не можете начинать темы
    Вы не можете отвечать на сообщения
    Вы не можете редактировать свои сообщения
    Вы не можете удалять свои сообщения
    Вы не можете голосовать в опросах
    Вы не можете прикреплять файлы к сообщениям
    Вы можете скачивать файлы
    Бегущий по лезвию 2049 в 3D / Blade Runner 2049 in 3D [2017 г., фантастика, триллер, драма, детектив, 3D BDRip 1080p , Дубляж] Анаглиф от R.G. HD-Films смотреть онлайн, скачать торрент picoco.icu