Лицензия

MVO

1

1 сезон

Лицензия

Лицензия

13

MVO

1 сезон

Ultimate

pack

Рекомендуем

30

Repack

ВАЖНО

ВАЖНО

Ghostwire

RePack

jed

RePack

fifa19

RePack

RDR2

RePack

NEED FOR SPEED™ PAYBACK

RePack

Кинопоиск HD

 Острые козырьки 6 сезон

6 сезон

FAR CRY 6

RePack

Лицензия

MVO

1

1 сезон

1 сезон

Лицензия

  

Боец: Король ринга / Prizefighter: The Life of Jem Belcher (Дэниел Грэм) [2022, Биография, WEB-DLRip-AVC] DVO [Pazl Voice]

Боец: Король ринга через торрент pb.wtf

Раздают: 1 [ 0 KB/s ]
Размер: 2.17 GB | Добавлен: 2 мес. 6 д. назад | Торрент скачан:64 раза
Смотреть онлайн Боец: Король ринга | Скачать   

26-07-2022 03:02 Боец: Король ринга Скачать торрент  

Боец: Король ринга
Prizefighter: The Life of Jem Belcher

Год выпуска: 2022
Страна: Великобритания
Выпущено: Camelot Films, Hardman Pictures
Жанр: Биография
Продолжительность: 01:46:57
Перевод: Любительский (двухголосый) | Pazl Voice
Субтитры: Aнглийские

Режиссер: Дэниел Грэм

rating

В ролях: Мэтт Хукингс, Рэй Уинстон, Рассел Кроу, Мартон Чокаш, Джоди Мэй, Джулиан Гловер, Стивен Беркофф, Глен Фокс, Рики Чаплин, Люси Мартин

Описание: История жизни и становления легендарного профессионального боксера Джема Белчера. В эпоху зарождения бокса он стремительно ворвался на спортивный олимп. Несмотря на взлеты и падения он стал одним из самых харизматичных и любимых чемпионов мира.

Качество: WEB-DLRip-AVC
Формат: MKV

Видео: MPEG-4 AVC, 2017 Кбит/с, 1024x428
Аудио #1: AC3, 6 ch, 448 Кбит/с | RUS |
Аудио #2: AC3, 6 ch, 448 Кбит/с | ENG |
скриншот  скриншот  скриншот  скриншот  

General
Unique ID: 208779207468367965885024117074879453646 (0x9D1169A9846443AB1C6931259E0A19CE)
Complete name: E:TorrentsPrizefighter.2022.WEB-DLRip-AVC_от New-Team-by_JNS82.mkv
Format: Matroska
Format version: Version 4
File size: 2.17 GiB
Duration: 1 h 46 min
Overall bit rate: 2 911 kb/s
Movie name: Prizefighter.2022.WEB-DLRip-AVC_от New-Team-by_JNS82
Encoded date: UTC 2022-07-25 02:37:00
Writing application: mkvmerge v59.0.0 ('Shining Star') 64-bit
Writing library: libebml v1.4.2 + libmatroska v1.6.4

Video
ID: 1
Format: AVC
Format/Info: Advanced Video Codec
Format profile: [email protected]
Format settings: CABAC / 11 Ref Frames
Format settings, CABAC: Yes
Format settings, Reference: 11 frames
Codec ID: V_MPEG4/ISO/AVC
Duration: 1 h 46 min
Bit rate: 2 017 kb/s
Width: 1 024 pixels
Height: 428 pixels
Display aspect ratio: 2.40:1
Frame rate mode: Constant
Frame rate: 24.000 FPS
Color space: YUV
Chroma subsampling: 4:2:0
Bit depth: 8 bits
Scan type: Progressive
Bits/(Pixel*Frame): 0.192
Stream size: 1.50 GiB (69%)
Writing library: x264 core 164 r3079 d9a19f0
Encoding settings: cabac=1 / ref=11 / deblock=1:-3:-2 / analyse=0x3:0x133 / me=umh / subme=10 / psy=1 / psy_rd=1.00:0.05 / mixed_ref=1 / me_range=32 / chroma_me=1 / trellis=2 / 8x8dct=1 / cqm=0 / deadzone=21, 11 / fast_pskip=0 / chroma_qp_offset=-4 / threads=8 / lookahead_threads=2 / sliced_threads=0 / nr=0 / decimate=0 / interlaced=0 / bluray_compat=0 / constrained_intra=0 / bframes=10 / b_pyramid=2 / b_adapt=2 / b_bias=0 / direct=3 / weightb=1 / open_gop=0 / weightp=1 / keyint=240 / keyint_min=24 / scenecut=40 / intra_refresh=0 / rc_lookahead=60 / rc=2pass / mbtree=0 / bitrate=2017 / ratetol=1.0 / qcomp=0.60 / qpmin=0 / qpmax=69 / qpstep=4 / cplxblur=20.0 / qblur=0.5 / vbv_maxrate=50000 / vbv_bufsize=62500 / nal_hrd=none / filler=0 / ip_ratio=1.40 / pb_ratio=1.30 / aq=1:1.00
Default: Yes
Forced: No

Audio #1
ID: 2
Format: AC-3
Format/Info: Audio Coding 3
Commercial name: Dolby Digital
Codec ID: A_AC3
Duration: 1 h 46 min
Bit rate mode: Constant
Bit rate: 448 kb/s
Channel(s): 6 channels
Channel layout: L R C LFE Ls Rs
Sampling rate: 48.0 kHz
Frame rate: 31.250 FPS (1536 SPF)
Compression mode: Lossy
Stream size: 343 MiB (15%)
Title: DVO - PazlVoice
Language: Russian
Service kind: Complete Main
Default: Yes
Forced: No

Audio #2
ID: 3
Format: AC-3
Format/Info: Audio Coding 3
Commercial name: Dolby Digital
Codec ID: A_AC3
Duration: 1 h 46 min
Bit rate mode: Constant
Bit rate: 448 kb/s
Channel(s): 6 channels
Channel layout: L R C LFE Ls Rs
Sampling rate: 48.0 kHz
Frame rate: 31.250 FPS (1536 SPF)
Compression mode: Lossy
Stream size: 343 MiB (15%)
Language: English
Service kind: Complete Main
Default: No
Forced: No

Text
ID: 4
Format: UTF-8
Codec ID: S_TEXT/UTF8
Codec ID/Info: UTF-8 Plain Text
Duration: 1 h 45 min
Bit rate: 52 b/s
Count of elements: 1826
Stream size: 40.4 KiB (0%)
Language: English
Default: No
Forced: No




Скачать Боец: Король ринга через торрент https://i120.fastpic.org/big/2022/0725/30/1fcebf8615dbe369099b0f9d1c82c230.jpg Скачать, смотреть онлайн Боец: Король ринга бесплантно в хорошем качестве Описание: История жизни и становления легендарного профессионального боксера Джема Белчера. В эпоху зарождения бокса он стремительно ... 10 10 4
Торрент: Зарегистрирован [2022-07-26 03:02] · скачан: 64 раз
Статус: T временная
Размер: 2.17 GB
Как cкачать? Как скачать Боец: Король ринга через торрент | UTorrent

% Раздел Тема Автор DL S | L
Фильмы 2022 [DVDrip, WEB-DLRip, HDrip] (DUB, MVO) [ 1.46 GB ] Боец: Король ринга / Prizefighter: The Life of Jem Belcher | Мосфильм-Мастер | DLRip bober100 Скачать
4 | 0
Фильмы (WEB-DL 720p, 1080p) [ 4.48 GB ] Боец: Король ринга / Prizefighter: The Life of Jem Belcher | Мосфильм-Мастер | 1080p bober100 Скачать
2 | 0
Фильмы 2022 [DVDrip, WEB-DLRip, HDrip] (DUB, MVO) [ 1.46 GB ] Боец: Король ринга / Prizefighter: The Life of Jem Belcher | Мосфильм-Мастер | DLRip bober100 Скачать
4 | 0
Фильмы (WEB-DL 720p, 1080p) [ 7.01 GB ] Боец: Король ринга / Prizefighter: The Life of Jem Belcher | Мосфильм-Мастер | 1080p bober100 Скачать
4 | 0
Фильмы 2022 [DVDrip, WEB-DLRip, HDrip] (DUB, MVO) [ 1.98 GB ] Боец: Король ринга / Prizefighter: The Life of Jem Belcher | Мосфильм-Мастер | DLRip-AVC Lithuania Скачать
4 | 1

28-11-2019 20:33  

Отключить вcю реклaмy на сайте

26-07-2022 07:37 Боец: Король ринга Скачать торрент  

че то Кроу себя распустил совсем... в58 лет можно и получше стараться выглядеть. был таким молодцом! гладиатор ух мощь сила



    Дорогой пользователь! Огромная просьба, поблагодарите релизера, оцените раздачу и оставьте свои комментарий, если Вы скачали Боец: Король ринга через торрент бесплатно!!
    Комментировать посты могут только пользователи прошедшие не сложную регистрацию
    Показать сообщения:    


    Боец: Король ринга через торрент
    Скачать бесплатно Боец: Король ринга
    Боец: Король ринга скачать торрент
    Боец: Король ринга смотреть онлайн
    Cкачать фильм Боец: Король ринга бесплатно
    Боец: Король ринга скачать торрент в хорошем качестве
    Боец: Король ринга смотреть онлайн бесплатно в хорошем качестве
    Вы можете начинать темы
    Вы можете отвечать на сообщения
    Вы не можете редактировать свои сообщения
    Вы не можете удалять свои сообщения
    Вы не можете голосовать в опросах
    Вы не можете прикреплять файлы к сообщениям
    Вы можете скачивать файлы