Доктор Стрэндж

Лицензия

Добыча

Дубляж

Дом дракона

1 сезон

Тор

Дубляж

В эфире

Дубляж

Там, где раки поют

MVO

Властелин колец

1 сезон

GLOBAL

pack

Рекомендуем

30

Пиратка

ВАЖНО

ВАЖНО

Ghostwire

Пиратка

jed

RePack

nioh2

RePack

RDR2

RePack

NEED FOR SPEED™ PAYBACK

RePack

скачать торрент

Кинопоиск HD

Острые козырьки 6 сезон

6 сезон

FAR CRY 6

RePack

скачать торрент

Лицензия

скачать торрент

MVO

1

1 сезон

скачать торрент

1 сезон

скачать торрент

Лицензия

  

Пес-самурай и город кошек / Paws of Fury: The Legend of Hank (Крис Бэйли, Марк Куцир, Роб Минкофф) [2022, Мультфильм, боевик, комедия, семейный, WEB-DLRip-AVC] MVO [TVShows] от ExKinoRay

Пес-самурай и город кошек через торрент pb.wtf

Раздают: 10 [ 0 KB/s ]
Размер: 1.58 GB | Добавлен: 4 мес. 1 д. назад | Торрент скачан:227 раз
Смотреть онлайн | Скачать   

29-07-2022 08:11 Пес-самурай и город кошек Скачать торрент  


Пес-самурай и город кошек / Paws of Fury: The Legend of Hank
Информация Описание:
Название: Пес-самурай и город кошек
Оригинальное название: Paws of Fury: The Legend of Hank
Год выхода: 2022
Жанр: Мультфильм, боевик, комедия, семейный
Режиссер: Крис Бэйли, Марк Куцир, Роб Минкофф
В ролях: Майкл Сера, Сэмюэл Л. Джексон, Рики Джервэйс, Кайли Куиока, Мэл Брукс, Джордж Такей, Габриэль Иглесиас, Аасиф Мандви, Джимон Хонсу, Мишель Йео

Описание: Хэнк — смелый пёс, мечтающий стать самураем, вот только в городе кошек его никто не воспринимает всерьёз. Но когда армия пушистых ниндзя угрожает стереть их городок с лица Земли, Хэнк становится единственной надеждой на спасение. Теперь с помощью мудрого учителя и верных друзей он должен в сжатые сроки овладеть навыками великого воина. Только так у него появится шанс победить в эпической битве с могущественным врагом, вооруженным от усов до хвоста.



Страна: Великобритания, Китай, Канада, США
Студия: Align, Blazing Productions, Comic Animations, Flying Tigers Entertainment, GFM Animation, Huayi Brothers Media
Продолжительность: 01:33:35
Перевод: Профессиональный (многоголосый, закадровый) - TVShows



Информация о файле:
Кодек: AVC
Формат: MKV
Качество: WEB-DLRip-AVC
Видео: MPEG-4 AVC, 1024x428, 25.000 fps, 2030 kb/s
Аудио RU: AC3, 2 ch, 48 kHz, 192 kbps
Аудио EN: E-AC3, 6 ch, 48 kHz, 192 kbps
Субтитры: Английские



x264 info: frame I:1307 Avg QP:13.70 size: 72190
x264 info: frame P:35510 Avg QP:17.07 size: 19616
x264 info: frame B:103569 Avg QP:19.14 size: 6120
General
Unique ID : 317968154034386083538941150562969630353 (0xEF36705D2B16F043D1504A1661FEB691)
Complete name : D:uTorrentРипы wolf1245Paws of Fury.The Legend of Hank.2022.MVO.TVShows.X264.WEB-DLRip-AVC.[wolf1245.ExKinoRay].mkv
Format : Matroska
Format version : Version 4
File size : 1.58 GiB
Duration : 1 h 33 min
Overall bit rate : 2 416 kb/s
Movie name : Paws of Fury.The Legend of Hank.2022.MVO.TVShows.X264.WEB-DLRip-AVC.[wolf1245.ExKinoRay]
Encoded date : UTC 2022-07-29 07:57:54
Writing application : mkvmerge v69.0.0 ('Day And Age') 64-bit
Writing library : libebml v1.4.2 + libmatroska v1.6.4
Video
ID : 1
Format : AVC
Format/Info : Advanced Video Codec
Format profile : [email protected]
Format settings : CABAC / 12 Ref Frames
Format settings, CABAC : Yes
Format settings, Reference frames : 12 frames
Codec ID : V_MPEG4/ISO/AVC
Duration : 1 h 33 min
Bit rate : 2 030 kb/s
Width : 1 024 pixels
Height : 428 pixels
Display aspect ratio : 2.40:1
Frame rate mode : Constant
Frame rate : 25.000 FPS
Color space : YUV
Chroma subsampling : 4:2:0
Bit depth : 8 bits
Scan type : Progressive
Bits/(Pixel*Frame) : 0.185
Stream size : 1.33 GiB (84%)
Title : -=[wolf1245.ExKinoRay]=-
Writing library : x264 core 163 r3060 5db6aa6
Encoding settings : cabac=1 / ref=12 / deblock=1:-3:-2 / analyse=0x3:0x133 / me=umh / subme=10 / psy=1 / psy_rd=1.00:0.15 / mixed_ref=1 / me_range=32 / chroma_me=1 / trellis=2 / 8x8dct=1 / cqm=0 / deadzone=22,11 / fast_pskip=1 / chroma_qp_offset=-3 / threads=10 / lookahead_threads=2 / sliced_threads=0 / nr=0 / decimate=0 / interlaced=0 / bluray_compat=0 / constrained_intra=0 / bframes=10 / b_pyramid=2 / b_adapt=2 / b_bias=0 / direct=3 / weightb=1 / open_gop=0 / weightp=2 / keyint=250 / keyint_min=25 / scenecut=40 / intra_refresh=0 / rc_lookahead=80 / rc=2pass / mbtree=0 / bitrate=2030 / ratetol=1.0 / qcomp=0.75 / qpmin=0 / qpmax=69 / qpstep=4 / cplxblur=20.0 / qblur=0.5 / vbv_maxrate=50000 / vbv_bufsize=62500 / nal_hrd=none / filler=0 / ip_ratio=1.37 / pb_ratio=1.27 / aq=2:1.00
Language : English
Default : Yes
Forced : No
Audio #1
ID : 2
Format : AC-3
Format/Info : Audio Coding 3
Commercial name : Dolby Digital
Codec ID : A_AC3
Duration : 1 h 33 min
Bit rate mode : Constant
Bit rate : 192 kb/s
Channel(s) : 2 channels
Channel layout : L R
Sampling rate : 48.0 kHz
Frame rate : 31.250 FPS (1536 SPF)
Compression mode : Lossy
Stream size : 129 MiB (8%)
Title : MVO | TVShows | RUS
Language : Russian
Service kind : Complete Main
Default : Yes
Forced : No
Audio #2
ID : 3
Format : E-AC-3
Format/Info : Enhanced AC-3
Commercial name : Dolby Digital Plus
Codec ID : A_EAC3
Duration : 1 h 33 min
Bit rate mode : Constant
Bit rate : 192 kb/s
Channel(s) : 6 channels
Channel layout : L R C LFE Ls Rs
Sampling rate : 48.0 kHz
Frame rate : 31.250 FPS (1536 SPF)
Compression mode : Lossy
Stream size : 129 MiB (8%)
Title : Original | ENG
Language : English
Service kind : Complete Main
Default : No
Forced : No
Text
ID : 4
Format : UTF-8
Codec ID : S_TEXT/UTF8
Codec ID/Info : UTF-8 Plain Text
Duration : 1 h 33 min
Bit rate : 69 b/s
Count of elements : 1635
Stream size : 47.2 KiB (0%)
Language : English
Default : No
Forced : No
Релиз от:
Автор релиза:



Скачать Пес-самурай и город кошек через торрент http://i120.fastpic.org/big/2022/0727/74/f08d61068c8ba8b6504d62c2052e5274.jpg Скачать, смотреть онлайн Пес-самурай и город кошек бесплантно в хорошем качестве Описание: Название: Пес-самурай и город кошек Оригинальное название: Paws of Fury: The Legend of Hank Год выхода: 2022 Жанр: Мультфильм, ... 10 10 3
Торрент: Зарегистрирован [2022-07-29 08:11] · скачан: 227 раз
Статус: √ проверено
Размер: 1.58 GB
Как cкачать? Как скачать Пес-самурай и город кошек через торрент | UTorrent

% Раздел Тема Автор DL S | L
Иностранные мультфильмы [ 1.46 GB ] Пес-самурай и город кошек / Paws of Fury: The Legend of Hank | TVShows | DLRip bober100 Скачать
2 | 0
Зарубежные Мультфильмы (WEB-DL 720p, 1080p) [ 5.36 GB ] Пес-самурай и город кошек / Paws of Fury: The Legend of Hank | TVShows | 1080p bober100 Скачать
9 | 1

28-11-2019 20:33  


Отключить вcю реклaмy на сайте, в т.ч. и в плеере онлайн просмотра!

    Дорогой пользователь! Огромная просьба, поблагодарите релизера, оцените раздачу и оставьте свои комментарий, если Вы скачали Пес-самурай и город кошек через торрент бесплатно!!
    Комментировать посты могут только пользователи прошедшие не сложную регистрацию
    Показать сообщения:    


    Пес-самурай и город кошек через торрент
    Скачать бесплатно Пес-самурай и город кошек
    Пес-самурай и город кошек скачать торрент
    Пес-самурай и город кошек смотреть онлайн
    Cкачать фильм Пес-самурай и город кошек бесплатно
    Пес-самурай и город кошек скачать торрент в хорошем качестве
    Пес-самурай и город кошек смотреть онлайн бесплатно в хорошем качестве
    Вы не можете начинать темы
    Вы не можете отвечать на сообщения
    Вы не можете редактировать свои сообщения
    Вы не можете удалять свои сообщения
    Вы не можете голосовать в опросах
    Вы не можете прикреплять файлы к сообщениям
    Вы можете скачивать файлы
    Пес-самурай и город кошек / Paws of Fury: The Legend of Hank [2022, Мультфильм, боевик, комедия, семейный, WEB-DLRip-AVC] MVO [TVShows] от ExKinoRay смотреть онлайн, скачать торрент picoco.icu