Доктор Стрэндж

Лицензия

Добыча

MVO

Дом дракона

1 сезон

Тор

Лицензия

Мэверик

Лицензия

Там, где раки поют

MVO

Властелин колец

1 сезон

Ultimate

pack

Рекомендуем

30

Repack

ВАЖНО

ВАЖНО

Ghostwire

RePack

jed

RePack

nioh2

RePack

RDR2

RePack

NEED FOR SPEED™ PAYBACK

RePack

скачать торрент

Кинопоиск HD

Острые козырьки 6 сезон

6 сезон

FAR CRY 6

RePack

скачать торрент

Лицензия

скачать торрент

MVO

1

1 сезон

скачать торрент

1 сезон

скачать торрент

Лицензия

  

Открытое море: Монстр глубины / The Reef: Stalked (Эндрю Трауки) [2022, Триллер, ужасы, WEB-DL 1080p] DUB [Кипарис]

Открытое море: Монстр глубины через торрент pb.wtf

Раздают: 9 [ 264 KB/s ]
Размер: 5.59 GB | Добавлен: 1 мес. 2 д. назад | Торрент скачан:199 раз
Смотреть онлайн Открытое море: Монстр глубины | Скачать   

31-07-2022 02:47 Открытое море: Монстр глубины Скачать торрент  

Открытое море: Монстр глубины
The Reef: Stalked

Год выпуска: 2022
Страна: Австралия
Выпущено: Thrills & Spills, Filmology Finance, Cornerstone Pictures
Жанр: Триллер, ужасы
Продолжительность: 01:33:41
Перевод: Дублированный | Кипарис
Субтитры: Русские (full)

Режиссер: Эндрю Трауки

rating

В ролях: Тересса Лиэн, Энн Чюонг, Саския Арчер, Кейт Листер, Тим Росс

Описание: Ники и ее подруги отправляются на экзотический остров в Тихом океане, чтобы покататься на байдарках и заняться дайвингом. Но девушек начинает преследовать огромный морской монстр, и теперь им придется встретиться со своими страхами лицом к лицу.

Качество: WEB-DL 1080p
Формат: MKV

Видео: MPEG-4 AVC, 7875 Kb/s, 1920x1080, 23.976 fps
Аудио #01: 48 kHz, AC3, 5.1, 384 Kbps | Дублированный | Кипарис | RUS |
Аудио #02: 48 kHz, AC3, 5.1, 384 Kbps | Оригинал | ENG |
скриншот  скриншот  скриншот  скриншот  

Complete name:
Otkryitoe.more.Monstr.glubinyi.2022.WEB-DL.1080p.ELEKTRI4KA.UNIONGANG.mkv
Format: Matroska
Format version: Version 4
File size: 5.59 GiB
Duration: 1 h 32 min
Overall bit rate: 8 645 kb/s
Movie name: Otkryitoe.more.Monstr.glubinyi.2022.WEB-DL.1080p.ELEKTRI4KA.UNIONGANG.
Encoded date: UTC 2022-08-31 22:16:27
Writing application: mkvmerge v8.3.0 ('Over the Horizon') 32bit
Writing library: libebml v1.3.1 + libmatroska v1.4.2

Video
ID: 1
Format: AVC
Format/Info: Advanced Video Codec
Format profile: [email protected]
Format settings: CABAC / 2 Ref Frames
Format settings, CABAC: Yes
Format settings, Reference frames: 2 frames
Codec ID: V_MPEG4/ISO/AVC
Duration: 1 h 32 min
Bit rate mode: Constant
Bit rate: 7 875 kb/s
Nominal bit rate: 9 060 kb/s
Width: 1 920 pixels
Height: 1 080 pixels
Display aspect ratio: 16:9
Frame rate mode: Constant
Frame rate: 23.976 (24000/1001) FPS
Color space: YUV
Chroma subsampling: 4:2:0
Bit depth: 8 bits
Scan type: Progressive
Bits/(Pixel*Frame): 0.158
Stream size: 5.09 GiB (91%)
Default: Yes
Forced: No
Color range: Limited
Color primaries: BT.709
Transfer characteristics: BT.709
Matrix coefficients: BT.709

Audio #1
ID: 2
Format: AC-3
Format/Info: Audio Coding 3
Commercial name: Dolby Digital
Codec ID: A_AC3
Duration: 1 h 32 min
Bit rate mode: Constant
Bit rate: 384 kb/s
Channel(s): 6 channels
Channel layout: L R C LFE Ls Rs
Sampling rate: 48.0 kHz
Frame rate: 31.250 FPS (1536 SPF)
Compression mode: Lossy
Stream size: 254 MiB (4%)
Title: DUB (Kiparis)
Language: Russian
Service kind: Complete Main
Default: Yes
Forced: Yes

Audio #2
ID: 3
Format: E-AC-3
Format/Info: Enhanced AC-3
Commercial name: Dolby Digital Plus
Codec ID: A_EAC3
Duration: 1 h 32 min
Bit rate mode: Constant
Bit rate: 384 kb/s
Channel(s): 6 channels
Channel layout: L R C LFE Ls Rs
Sampling rate: 48.0 kHz
Frame rate: 31.250 FPS (1536 SPF)
Compression mode: Lossy
Stream size: 254 MiB (4%)
Title: Original
Language: English
Service kind: Complete Main
Default: No
Forced: No

Text
ID: 4
Format: UTF-8
Codec ID: S_TEXT/UTF8
Codec ID/Info: UTF-8 Plain Text
Duration: 1 h 28 min
Bit rate: 32 b/s
Count of elements: 901
Stream size: 21.4 KiB (0%)
Title: Full
Language: Russian
Default: No
Forced: No




Скачать Открытое море: Монстр глубины через торрент https://i120.fastpic.org/big/2022/0901/de/38cc6ffbe5faa41d96562e498823f7de.jpg Скачать, смотреть онлайн Открытое море: Монстр глубины бесплантно в хорошем качестве Описание: Ники и ее подруги отправляются на экзотический остров в Тихом океане, чтобы покататься на байдарках и заняться дайвингом. Но ... 9.2 10 14
Торрент: Зарегистрирован [2022-09-01 02:56] · скачан: 199 раз
Статус: √ проверено
Размер: 5.59 GB
Как cкачать? Как скачать Открытое море: Монстр глубины через торрент | UTorrent

% Раздел Тема Автор DL S | L
Фильмы 2022 [DVDrip, WEB-DLRip, HDrip] (DUB, MVO) [ 1.46 GB ] Открытое море: Монстр глубины / The Reef: Stalked | Кипарис | BDRip bober100 Скачать
15 | 0
Фильмы 2022 [DVDrip, WEB-DLRip, HDrip] (DUB, MVO) [ 746 MB ] Открытое море: Монстр глубины / The Reef: Stalked | Кипарис | BDRip bober100 Скачать
1 | 0
Фильмы 2022 [DVDrip, WEB-DLRip, HDrip] (DUB, MVO) [ 1.59 GB ] Открытое море: Монстр глубины / The Reef: Stalked | Кипарис | DLRip-AVC Lithuania Скачать
7 | 0
Фильмы 2022 [DVDrip, WEB-DLRip, HDrip] (DUB, MVO) [ 1.81 GB ] Открытое море: Монстр глубины / The Reef: Stalked | Кипарис | DLRip-AVC bober100 Скачать
6 | 0



Последний раз редактировалось: bober100 (2022-09-01 09:49), всего редактировалось 4 раз(а)

28-11-2019 20:33  

Отключить вcю реклaмy на сайте

31-07-2022 09:54 Открытое море: Монстр глубины Скачать торрент  

и чем(интересно)питался данный монстр до приезда этой толпы девиц(ага на байдарках)или он так изголодал что и худосочные бабы пойдут как закусь...



31-07-2022 12:30 Открытое море: Монстр глубины Скачать торрент  

Wapentake666 писал(а):

и чем(интересно)питался данный монстр до приезда этой толпы девиц(ага на байдарках)или он так изголодал что и худосочные бабы пойдут как закусь...

Режиссерами таких фильмов .



31-07-2022 14:30 Открытое море: Монстр глубины Скачать торрент  

Wapentake666 писал(а):

и чем(интересно)питался данный монстр до приезда этой толпы девиц(ага на байдарках)или он так изголодал что и худосочные бабы пойдут как закусь...

ОН спал ...



31-07-2022 15:46 Открытое море: Монстр глубины Скачать торрент  

на баб потянуло??



01-09-2022 05:10 Открытое море: Монстр глубины Скачать торрент  

Эта тема с акулами уже замусолена так, что смотреть уже не хочется просто, их самих ещё на задолбало снимать



04-09-2022 14:17 Открытое море: Монстр глубины Скачать торрент  

Слабенький фильм



07-09-2022 03:10 Открытое море: Монстр глубины Скачать торрент  

съёмки красивые. местами что-то "не вяжется", но вы смотрите кино, а не документалистику.
смотреть интересно!



    Дорогой пользователь! Огромная просьба, поблагодарите релизера, оцените раздачу и оставьте свои комментарий, если Вы скачали Открытое море: Монстр глубины через торрент бесплатно!!
    Комментировать посты могут только пользователи прошедшие не сложную регистрацию
    Показать сообщения:    


    Открытое море: Монстр глубины через торрент
    Скачать бесплатно Открытое море: Монстр глубины
    Открытое море: Монстр глубины скачать торрент
    Открытое море: Монстр глубины смотреть онлайн
    Cкачать фильм Открытое море: Монстр глубины бесплатно
    Открытое море: Монстр глубины скачать торрент в хорошем качестве
    Открытое море: Монстр глубины смотреть онлайн бесплатно в хорошем качестве
    Вы не можете начинать темы
    Вы не можете отвечать на сообщения
    Вы не можете редактировать свои сообщения
    Вы не можете удалять свои сообщения
    Вы не можете голосовать в опросах
    Вы не можете прикреплять файлы к сообщениям
    Вы можете скачивать файлы