Доктор Стрэндж

Лицензия

Добыча

Дубляж

Уэнсдэй

1 сезон

Тор

Дубляж

В эфире

Дубляж

Там, где раки поют

MVO

Властелин колец

1 сезон

Deluxe

pack

Рекомендуем

30

Пиратка

ВАЖНО

ВАЖНО

Ghostwire

Пиратка

jed

RePack

nioh2

RePack

RDR2

RePack

NEED FOR SPEED™ PAYBACK

RePack

скачать торрент

Кинопоиск HD

Острые козырьки 6 сезон

6 сезон

FAR CRY 6

RePack

скачать торрент

Лицензия

скачать торрент

MVO

1

1 сезон

скачать торрент

1 сезон

скачать торрент

Лицензия

  

Виво / Vivo (Кирк де Микко, Брэндон Джеффордс) [2021, Мультфильм, мюзикл, комедия, приключения, семейный, HDRip-AVC] Дубляж [Невафильм / Netflix]

Виво через торрент pb.wtf

Размер: 2.47 GB | Добавлен: 4 мес. 3 д. назад | Торрент скачан:47 раз
Смотреть онлайн | Скачать   

01-08-2022 03:55 Виво Скачать торрент  

Виво | Vivo
Год выпуска: 2021
Страна: Канада, США
Студия: Columbia Pictures Corporation, Sony Pictures Animation
Жанр: Мультфильм, мюзикл, комедия, приключения, семейный
Продолжительность: 01:35:40
Перевод: Дублированный | Невафильм по заказу Netflix
Субтитры: Русские (Forced, full), украинские (Forced, full), английские

Режиссер: Кирк де Микко, Брэндон Джеффордс

rating

В ролях: Лин-Мануэль Миранда, Зои Салдана, Хуан Де Маркос Гонзалез, Майкл Рукер, Брайан Тайри Генри, Николь Байер, Глория Эстефан, Лесли Дэвид Бэйкер, Кэти Лоус

Описание: Кинкажу Виво отправляется в незабываемое путешествие, чтобы исполнить песню, написанную его хозяином Андресом для его возлюбленной Марты.

Качество: HDRip-AVC
Формат: MKV

Видео: MPEG-4 AVC, 1024x428 at 23.976 fps, [email protected], ~2792 kbps
Аудио#1: 48 kHz, AC3 Dolby Digital, 3/2 (L, C, R, l, r) + LFE ch, ~448 Kbps
Аудио#2: 48 kHz, AC3 Dolby Digital, 3/2 (L, C, R, l, r) + LFE ch, ~448 Kbps
скриншот  скриншот  скриншот  скриншот  

x264 [info]: frame I:1074 Avg QP:16.26 size: 74333
x264 [info]: frame P:34251 Avg QP:18.19 size: 26500
x264 [info]: frame B:102315 Avg QP:19.30 size: 9928

General
Unique ID : 120861805080952453085842041191306417888 (0x5AED230F67A6E1FAAAD0B93E8B64D6E0)
Complete name : D:Vivo.2021.HDRip.x264.seleZen.mkv
Format : Matroska
Format version : Version 4
File size : 2.47 GiB
Duration : 1 h 35 min
Overall bit rate : 3 690 kb/s
Movie name : Vivo.2021.HDRip.x264.seleZen
Encoded date : UTC 2022-07-31 18:55:19
Writing application : mkvmerge v63.0.0 ('Everything') 64-bit
Writing library : libebml v1.4.2 + libmatroska v1.6.4
Cover : Yes
Attachments : cover.jpg / small_cover.jpg

Video
ID : 1
Format : AVC
Format/Info : Advanced Video Codec
Format profile : [email protected]
Format settings : CABAC / 12 Ref Frames
Format settings, CABAC : Yes
Format settings, Reference : 12 frames
Codec ID : V_MPEG4/ISO/AVC
Duration : 1 h 35 min
Bit rate : 2 792 kb/s
Width : 1 024 pixels
Height : 428 pixels
Display aspect ratio : 2.40:1
Frame rate mode : Constant
Frame rate : 23.976 (24000/1001) FPS
Color space : YUV
Chroma subsampling : 4:2:0
Bit depth : 8 bits
Scan type : Progressive
Bits/(Pixel*Frame) : 0.266
Stream size : 1.87 GiB (76%)
Title : -=DoMiNo=-
Writing library : x264 core 164 by -=DoMiNo=-
Encoding settings : cabac=1 / ref=12 / deblock=1:-3:-3 / analyse=0x3:0x133 / me=umh / subme=11 / psy=1 / psy_rd=1.03:0.05 / mixed_ref=1 / me_range=32 / chroma_me=1 / trellis=2 / 8x8dct=1 / cqm=0 / deadzone=21,11 / fast_pskip=0 / chroma_qp_offset=-3 / threads=17 / lookahead_threads=2 / sliced_threads=0 / nr=0 / decimate=0 / interlaced=0 / bluray_compat=0 / constrained_intra=0 / bframes=9 / b_pyramid=2 / b_adapt=2 / b_bias=0 / direct=3 / weightb=1 / open_gop=0 / weightp=2 / keyint=250 / keyint_min=23 / scenecut=40 / intra_refresh=0 / rc_lookahead=60 / rc=crf / mbtree=0 / crf=18.0 / qcomp=0.65 / qpmin=0 / qpmax=69 / qpstep=4 / vbv_maxrate=50000 / vbv_bufsize=62500 / crf_max=0.0 / nal_hrd=none / filler=0 / ip_ratio=1.30 / pb_ratio=1.20 / aq=3:0.80
Language : English
Default : Yes
Forced : No

Audio #1
ID : 2
Format : AC-3
Format/Info : Audio Coding 3
Commercial name : Dolby Digital
Codec ID : A_AC3
Duration : 1 h 35 min
Bit rate mode : Constant
Bit rate : 448 kb/s
Channel(s) : 6 channels
Channel layout : L R C LFE Ls Rs
Sampling rate : 48.0 kHz
Frame rate : 31.250 FPS (1536 SPF)
Compression mode : Lossy
Stream size : 307 MiB (12%)
Title : Дубляж
Language : Russian
Service kind : Complete Main
Default : Yes
Forced : Yes

Audio #2
ID : 3
Format : AC-3
Format/Info : Audio Coding 3
Commercial name : Dolby Digital
Codec ID : A_AC3
Duration : 1 h 35 min
Bit rate mode : Constant
Bit rate : 448 kb/s
Channel(s) : 6 channels
Channel layout : L R C LFE Ls Rs
Sampling rate : 48.0 kHz
Frame rate : 31.250 FPS (1536 SPF)
Compression mode : Lossy
Stream size : 307 MiB (12%)
Title : Original
Language : English
Service kind : Complete Main
Default : No
Forced : No

Text #1
ID : 4
Format : UTF-8
Codec ID : S_TEXT/UTF8
Codec ID/Info : UTF-8 Plain Text
Duration : 1 h 26 min
Bit rate : 1 b/s
Count of elements : 29
Stream size : 1.18 KiB (0%)
Title : Forced
Language : Russian
Default : Yes
Forced : No

Text #2
ID : 5
Format : UTF-8
Codec ID : S_TEXT/UTF8
Codec ID/Info : UTF-8 Plain Text
Duration : 1 h 34 min
Bit rate : 88 b/s
Count of elements : 1267
Stream size : 61.2 KiB (0%)
Title : Full
Language : Russian
Default : No
Forced : No

Text #3
ID : 6
Format : UTF-8
Codec ID : S_TEXT/UTF8
Codec ID/Info : UTF-8 Plain Text
Duration : 1 h 34 min
Bit rate : 2 b/s
Count of elements : 46
Stream size : 1.60 KiB (0%)
Title : Forced
Language : Ukrainian
Default : No
Forced : No

Text #4
ID : 7
Format : UTF-8
Codec ID : S_TEXT/UTF8
Codec ID/Info : UTF-8 Plain Text
Duration : 1 h 34 min
Bit rate : 99 b/s
Count of elements : 1331
Stream size : 68.5 KiB (0%)
Title : Full
Language : Ukrainian
Default : No
Forced : No

Text #5
ID : 8
Format : UTF-8
Codec ID : S_TEXT/UTF8
Codec ID/Info : UTF-8 Plain Text
Duration : 1 h 32 min
Bit rate : 84 b/s
Count of elements : 1697
Stream size : 57.3 KiB (0%)
Title : SDH
Language : English
Default : No
Forced : No

Menu
00:00:00.000 : en:Chapter 01
00:05:41.299 : en:Chapter 02
00:08:37.100 : en:Chapter 03
00:13:42.405 : en:Chapter 04
00:18:20.558 : en:Chapter 05
00:23:15.185 : en:Chapter 06
00:28:14.610 : en:Chapter 07
00:35:13.028 : en:Chapter 08
00:40:35.850 : en:Chapter 09
00:44:55.401 : en:Chapter 10
00:50:09.423 : en:Chapter 11
00:55:39.336 : en:Chapter 12
01:01:31.438 : en:Chapter 13
01:06:13.386 : en:Chapter 14
01:10:50.997 : en:Chapter 15
01:17:17.591 : en:Chapter 16




Скачать Виво через торрент https://i120.fastpic.org/big/2022/0801/42/f00eb4af94c09e6f5e6ddd28ae8e2042.jpg Скачать, смотреть онлайн Виво бесплантно в хорошем качестве Описание: Кинкажу Виво отправляется в незабываемое путешествие, чтобы исполнить песню, написанную его хозяином Андресом для его ... 10 10 2
Торрент: Зарегистрирован [2022-08-01 03:55] · скачан: 47 раз
Статус: √ проверено
Размер: 2.47 GB
Как cкачать? Как скачать Виво через торрент | UTorrent

% Раздел Тема Автор DL S | L
Иностранные мультфильмы [ 746 MB ] Виво / Vivo | DUB | BDRip bober100 Скачать
3 | 0
Зарубежные Мультфильмы (BDRip 1080p, 720p, Blu-ray, BD-Remux) [ 21.52 GB ] Виво / Vivo | DUB | BD Remux 1080p bober100 Скачать
1 | 0
Зарубежные Мультфильмы (BDRip 1080p, 720p, Blu-ray, BD-Remux) [ 5.5 GB ] Виво / Vivo | DUB | 720p bober100 Скачать
1 | 0
Иностранные мультфильмы [ 1.46 GB ] Виво / Vivo | | DLRip-AVC sokol_ok Скачать
3 | 0
Иностранные мультфильмы [ 2.42 GB ] Виво / Vivo | DUB | DLRip-AVC Lithuania Скачать
1 | 0
Иностранные мультфильмы [ 1.46 GB ] Виво / Vivo | DUB | BDRip bober100 Скачать
2 | 0
Зарубежные Мультфильмы (BDRip 1080p, 720p, Blu-ray, BD-Remux) [ 11.68 GB ] Виво / Vivo | DUB | 1080p bober100 Скачать
2 | 0

28-11-2019 20:33  


Отключить вcю реклaмy на сайте, в т.ч. и в плеере онлайн просмотра!

    Дорогой пользователь! Огромная просьба, поблагодарите релизера, оцените раздачу и оставьте свои комментарий, если Вы скачали Виво через торрент бесплатно!!
    Комментировать посты могут только пользователи прошедшие не сложную регистрацию
    Показать сообщения:    


    Виво через торрент
    Скачать бесплатно Виво
    Виво скачать торрент
    Виво смотреть онлайн
    Cкачать фильм Виво бесплатно
    Виво скачать торрент в хорошем качестве
    Виво смотреть онлайн бесплатно в хорошем качестве
    Вы не можете начинать темы
    Вы не можете отвечать на сообщения
    Вы не можете редактировать свои сообщения
    Вы не можете удалять свои сообщения
    Вы не можете голосовать в опросах
    Вы не можете прикреплять файлы к сообщениям
    Вы можете скачивать файлы
    Виво / Vivo [2021, Мультфильм, мюзикл, комедия, приключения, семейный, HDRip-AVC] Дубляж [Невафильм / Netflix] смотреть онлайн, скачать торрент picoco.icu