Лицензия

MVO

1

1 сезон

Лицензия

Лицензия

13

MVO

1 сезон

Ultimate

pack

Рекомендуем

30

Repack

ВАЖНО

ВАЖНО

Ghostwire

RePack

jed

RePack

fifa19

RePack

RDR2

RePack

NEED FOR SPEED™ PAYBACK

RePack

Кинопоиск HD

 Острые козырьки 6 сезон

6 сезон

FAR CRY 6

RePack

Лицензия

MVO

1

1 сезон

1 сезон

Лицензия

  

Взрывная игра / Опасное место / Hot Seat (Джеймс Каллен Брэссак) [2022, Триллер, BDRip 720p] DUB [Lucky Production]

Взрывная игра через торрент pb.wtf

Раздают: 1 [ 0 KB/s ]
Размер: 4.4 GB | Добавлен: 2 мес. назад | Торрент скачан:94 раза
Смотреть онлайн Взрывная игра | Скачать   

01-08-2022 04:45 Взрывная игра Скачать торрент  

Взрывная игра
Опасное место
Hot Seat

Год выпуска: 2022
Страна: США
Студия: BondIt, Buffalo 8 Productions, Emmett/Furla Films, Grindstone Studios, Verdi Productions
Жанр: Триллер
Продолжительность: 01:38:59
Перевод: Дублированный | Lucky Production
Субтитры: Русские (Forced, full), английские

Режиссер: Джеймс Каллен Брэссак

rating

В ролях: Мэл Гибсон, Шэннен Доэрти, Кевин Диллон, Лидия Халл, Майкл Уэлш, Сэм Асгари, Кейт Кацман, Эдди Стиплз, Анна Харр, Кит Джардин

Описание: Эксперт по информационным технологиях Фрайар обнаруживает, что кто-то спрятал бомбу под его рабочим креслом. Неизвестный злоумышленник требует, что Фрайар украл цифровые деньги из крупнейшего банка, оснащенного совершенной системой безопасности. В противном случае, умрет сам эксперт и его дочь. Пока Фрайар пытается проникнуть в банк, к нему на помощь спешит эксперт из полиции, который должен обезвредить бомбу. «Взрывная игра» — остросюжетный кибер-триллер с Мэлом Гибсоном в главной роли.

Качество: BDRip 720p
Формат: MKV

Видео: MPEG-4 AVC, 1280x536, 4828 Кbit/s, 23.976 fps
Аудио #01: 48 kHz, AC3, 5.1, 448 Kbps | Дублированный | Lucky Production | RUS |
Аудио #02: 48 kHz, E-AC3, 5.1, 448 Kbps | Дублированный | Lucky Production | RUS |
Аудио #03: 48 kHz, AC3, 5.1, 640 Kbps | Оригинал | ENG |
скриншот  скриншот  скриншот  скриншот  скриншот  скриншот  

General
Unique ID : 111806613829117516271032112520817664267 (0x541D2BA984D93E017C14FA5AEE89E10B)
Complete name : E:VideosHot.Seat.2022.BDRip.720p.seleZen.mkv
Format : Matroska
Format version : Version 4
File size : 4.40 GiB
Duration : 1 h 39 min
Overall bit rate : 6 364 kb/s
Movie name : Hot Seat 2022 from seleZen
Encoded date : UTC 2022-07-31 08:42:36
Writing application : mkvmerge v59.0.0 ('Shining Star') 64-bit
Writing library : libebml v1.4.2 + libmatroska v1.6.4

Video
ID : 1
Format : AVC
Format/Info : Advanced Video Codec
Format profile : [email protected]
Format settings : CABAC / 12 Ref Frames
Format settings, CABAC : Yes
Format settings, Reference : 12 frames
Codec ID : V_MPEG4/ISO/AVC
Duration : 1 h 38 min
Bit rate : 4 828 kb/s
Width : 1 280 pixels
Height : 536 pixels
Display aspect ratio : 2.40:1
Frame rate mode : Constant
Frame rate : 23.976 (24000/1001) FPS
Color space : YUV
Chroma subsampling : 4:2:0
Bit depth : 8 bits
Scan type : Progressive
Bits/(Pixel*Frame) : 0.293
Stream size : 3.34 GiB (76%)
Title : MTeam
Writing library : x264 core 157 r2938 2b00a84 [email protected] Mod
Encoding settings : cabac=1 / ref=12 / deblock=1:-3:-3 / analyse=0x3:0x133 / me=umh / subme=10 / psy=1 / psy_rd=1.05:0.00 / mixed_ref=1 / me_range=32 / chroma_me=1 / trellis=2 / 8x8dct=1 / cqm=0 / deadzone=21, 11 / fast_pskip=0 / chroma_qp_offset=-2 / threads=12 / lookahead_threads=2 / sliced_threads=0 / nr=0 / decimate=0 / interlaced=0 / bluray_compat=0 / constrained_intra=0 / bframes=8 / b_pyramid=2 / b_adapt=2 / b_bias=0 / direct=3 / weightb=1 / open_gop=0 / weightp=2 / keyint=250 / keyint_min=24 / scenecut=40 / intra_refresh=0 / rc_lookahead=250 / rc=crf / mbtree=0 / crf=16.8 / qcomp=0.60 / qpmin=0 / qpmax=69 / qpstep=4 / vbv_maxrate=62500 / vbv_bufsize=78125 / crf_max=0.0 / nal_hrd=none / filler=0 / ip_ratio=1.30 / pb_ratio=1.20 / aq=3:0.80
Language : English
Default : Yes
Forced : No
Color range : Limited
Color primaries : BT.709
Matrix coefficients : BT.709

Audio #1
ID : 2
Format : AC-3
Format/Info : Audio Coding 3
Commercial name : Dolby Digital
Codec ID : A_AC3
Duration : 1 h 39 min
Bit rate mode : Constant
Bit rate : 448 kb/s
Channel(s) : 6 channels
Channel layout : L R C LFE Ls Rs
Sampling rate : 48.0 kHz
Frame rate : 31.250 FPS (1536 SPF)
Compression mode : Lossy
Stream size : 317 MiB (7%)
Title : Dub
Language : Russian
Service kind : Complete Main
Default : Yes
Forced : Yes

Audio #2
ID : 3
Format : E-AC-3
Format/Info : Enhanced AC-3
Commercial name : Dolby Digital Plus
Codec ID : A_EAC3
Duration : 1 h 39 min
Bit rate mode : Constant
Bit rate : 448 kb/s
Channel(s) : 6 channels
Channel layout : L R C LFE Ls Rs
Sampling rate : 48.0 kHz
Frame rate : 31.250 FPS (1536 SPF)
Compression mode : Lossy
Stream size : 317 MiB (7%)
Title : Dub
Language : Russian
Service kind : Complete Main
Default : No
Forced : No

Audio #3
ID : 4
Format : AC-3
Format/Info : Audio Coding 3
Commercial name : Dolby Digital
Codec ID : A_AC3
Duration : 1 h 38 min
Bit rate mode : Constant
Bit rate : 640 kb/s
Channel(s) : 6 channels
Channel layout : L R C LFE Ls Rs
Sampling rate : 48.0 kHz
Frame rate : 31.250 FPS (1536 SPF)
Compression mode : Lossy
Stream size : 453 MiB (10%)
Title : Original
Language : English
Service kind : Complete Main
Default : No
Forced : No

Text #1
ID : 5
Format : UTF-8
Codec ID : S_TEXT/UTF8
Codec ID/Info : UTF-8 Plain Text
Duration : 1 h 33 min
Bit rate : 2 b/s
Frame rate : 0.008 FPS
Count of elements : 47
Stream size : 1.71 KiB (0%)
Title : Forced
Language : Russian
Default : Yes
Forced : Yes

Text #2
ID : 6
Format : UTF-8
Codec ID : S_TEXT/UTF8
Codec ID/Info : UTF-8 Plain Text
Duration : 1 h 34 min
Bit rate : 93 b/s
Frame rate : 0.283 FPS
Count of elements : 1606
Stream size : 64.7 KiB (0%)
Title : Full
Language : Russian
Default : No
Forced : No

Text #3
ID : 7
Format : UTF-8
Codec ID : S_TEXT/UTF8
Codec ID/Info : UTF-8 Plain Text
Duration : 1 h 30 min
Bit rate : 72 b/s
Frame rate : 0.256 FPS
Count of elements : 1389
Stream size : 48.1 KiB (0%)
Title : Full
Language : English
Default : No
Forced : No

Menu
00:00:00.000 : Chapter 01
00:11:24.684 : Chapter 02
00:22:48.367 : Chapter 03
00:29:31.770 : Chapter 04
00:37:49.267 : Chapter 05
00:45:16.714 : Chapter 06
00:53:33.210 : Chapter 07
01:01:53.710 : Chapter 08
01:10:07.203 : Chapter 09
01:20:28.824 : Chapter 10
01:30:44.439 : Chapter 11
01:33:19.803 : Chapter 12




Скачать Взрывная игра через торрент https://i120.fastpic.org/big/2022/0709/33/b001f33d0f0233b2a9c8be6051daa933.jpg Скачать, смотреть онлайн Взрывная игра бесплантно в хорошем качестве Описание: Эксперт по информационным технологиях Фрайар обнаруживает, что кто-то спрятал бомбу под его рабочим креслом. Неизвестный ... 10 10 5
Торрент: Зарегистрирован [2022-08-01 04:45] · скачан: 94 раз
Статус: √ проверено
Размер: 4.4 GB
Как cкачать? Как скачать Взрывная игра через торрент | UTorrent

% Раздел Тема Автор DL S | L
Фильмы [HD 720p, 1080p] (Хороший звук DUB, MVO) [ 12.37 GB ] Взрывная игра / Опасное место / Hot Seat | DUB | 1080p bober100 Скачать
6 | 0
Фильмы 2022 [DVDrip, WEB-DLRip, HDrip] (DUB, MVO) [ 746 MB ] Взрывная игра / Опасное место / Hot Seat | DUB | BDRip bober100 Скачать
2 | 0
Фильмы 2022 [DVDrip, WEB-DLRip, HDrip] (DUB, MVO) [ 2.1 GB ] Взрывная игра / Опасное место / Hot Seat | DUB | HDRip-AVC bober100 Скачать
3 | 0
Фильмы 2022 [DVDrip, WEB-DLRip, HDrip] (DUB, MVO) [ 1.46 GB ] Взрывная игра / Опасное место / Hot Seat | DUB | BDRip bober100 Скачать
3 | 1

28-11-2019 20:33  

Отключить вcю реклaмy на сайте

    Дорогой пользователь! Огромная просьба, поблагодарите релизера, оцените раздачу и оставьте свои комментарий, если Вы скачали Взрывная игра через торрент бесплатно!!
    Комментировать посты могут только пользователи прошедшие не сложную регистрацию
    Показать сообщения:    


    Взрывная игра через торрент
    Скачать бесплатно Взрывная игра
    Взрывная игра скачать торрент
    Взрывная игра смотреть онлайн
    Cкачать фильм Взрывная игра бесплатно
    Взрывная игра скачать торрент в хорошем качестве
    Взрывная игра смотреть онлайн бесплатно в хорошем качестве
    Вы не можете начинать темы
    Вы не можете отвечать на сообщения
    Вы не можете редактировать свои сообщения
    Вы не можете удалять свои сообщения
    Вы не можете голосовать в опросах
    Вы не можете прикреплять файлы к сообщениям
    Вы можете скачивать файлы