Доктор Стрэндж

Лицензия

Добыча

Дубляж

Дом дракона

1 сезон

Тор

Дубляж

В эфире

Дубляж

Там, где раки поют

MVO

Властелин колец

1 сезон

Deluxe

pack

Рекомендуем

30

Пиратка

ВАЖНО

ВАЖНО

Ghostwire

Пиратка

jed

RePack

nioh2

RePack

RDR2

RePack

NEED FOR SPEED™ PAYBACK

RePack

скачать торрент

Кинопоиск HD

Острые козырьки 6 сезон

6 сезон

FAR CRY 6

RePack

скачать торрент

Лицензия

скачать торрент

MVO

1

1 сезон

скачать торрент

1 сезон

скачать торрент

Лицензия

  

Мстители: Финал в 3D / Avengers: Endgame 3D (Энтони Руссо, Джо Руссо) [2019 г., Фантастика, Боевик, Приключения, 3D BDRip 1080p, Дубляж iTunes] Анаглиф (Дюбуа) от R.G. HD-Films

Мстители: Финал в 3D через торрент pb.wtf

Размер: 11.87 GB | Добавлен: 4 мес. 1 д. назад | Торрент скачан:4 раза
Смотреть онлайн | Скачать   

01-08-2022 09:41 Мстители: Финал в 3D Скачать торрент  

Мстители: Финал в 3D / Avengers: Endgame 3D
Год выпуска: 2019
Страна: США
Жанр: Фантастика, Боевик, Приключения
Продолжительность: 03:01:11
Перевод: Дубляж iTunes
Субтитры: Русские (Forced вшитые, full), украинские, английские

Режиссер: Энтони Руссо, Джо Руссо

Бюджет: $356 000 000
Премьера в мире: 22 апреля 2019

rating

В ролях: Роберт Дауни мл., Крис Эванс, Марк Руффало, Крис Хемсворт, Скарлетт Йоханссон, Джереми Реннер, Дон Чидл, Пол Радд, Бри Ларсон, Карен Гиллан

Описание: Оставшиеся в живых члены команды Мстителей и их союзники должны разработать новый план, который поможет противостоять разрушительным действиям могущественного титана Таноса. После наиболее масштабной и трагической битвы в истории они не могут допустить ошибку.

Доп. информация: Формат 3D: Анаглиф (Дюбуа)



Качество: 3D BDRip 1080p
Формат: MKV
Видео кодек: H.264
Аудио кодек: AC3
Видео: 1920 x 1080 (16:9), 7711 kbps, 23,976 fps, 0.155 bpp
Аудио#1: Русский / AC3 / 48 KHz / 5.1 ch / 384 Kbps (Дубляж - iTunes)
Аудио#2: Украинский / AC3 / 48 KHz / 5.1 ch / 640 Kbps (Дубляж) (Спасибо Hurtom!)
Аудио#3: Английский / AC3 / 48 KHz / 5.1 ch / 640 Kbps (Original - BD 3D)
Релиз от: Автор рипа: slaventi-69
Общее
Уникальный идентификатор : 145946882281931560786874264412247420439 (0x6DCC58DABCDCC51BE56252686DCDEE17)
Полное имя : G:\60 FPS\Avengers_Endgame.(2019).3D.(Anaglyph_Dubois).mkv
Формат : Matroska
Версия формата : Version 4
Размер файла : 11,9 Гбайт
Продолжительность : 3 ч. 1 м.
Общий поток : 9360 Кбит/сек
Название фильма : Мстители: Финал / Avengers: Endgame (2019) in 3D (Anaglyph_Dubois)
Дата кодирования : UTC 2022-08-01 08:55:54
Программа кодирования : mkvmerge v69.0.0 ('Day And Age') 64-bit
Библиотека кодирования : libebml v1.4.2 + libmatroska v1.6.4

Видео
Идентификатор : 1
Формат : AVC
Формат/Информация : Advanced Video Codec
Профиль формата : [email protected]
MultiView_Count : 2
MultiView_Layout : Anaglyph (cyan/red)
Настройки формата : CABAC / 4 Ref Frames
Параметр CABAC формата : Да
Параметр RefFrames формата : 4 кадра
Идентификатор кодека : V_MPEG4/ISO/AVC
Продолжительность : 3 ч. 1 м.
Битрейт : 7711 Кбит/сек
Ширина : 1920 пикселей
Высота : 1080 пикселей
Соотношение сторон : 16:9
Режим частоты кадров : Постоянный
Частота кадров : 23,976 (24000/1001) кадра/сек
Цветовое пространство : YUV
Субдискретизация насыщенности : 4:2:0
Битовая глубина : 8 бит
Тип развёртки : Прогрессивная
Бит/(Пиксели*Кадры) : 0.155
Размер потока : 9,76 Гбайт (82%)
Заголовок : slaventi-69 ( R.G. HD-Films ) 3Д (Anaglyph_Dubois)
Библиотека кодирования : x264 core 130 r2273 b3065e6
Настройки программы : cabac=1 / ref=4 / deblock=1:-3:-3 / analyse=0x3:0x133 / me=umh / subme=9 / psy=1 / psy_rd=1.00:0.00 / mixed_ref=1 / me_range=32 / chroma_me=1 / trellis=2 / 8x8dct=1 / cqm=0 / deadzone=21,11 / fast_pskip=0 / chroma_qp_offset=-2 / threads=8 / lookahead_threads=4 / sliced_threads=0 / nr=0 / decimate=1 / interlaced=0 / bluray_compat=0 / constrained_intra=0 / bframes=4 / b_pyramid=2 / b_adapt=2 / b_bias=0 / direct=2 / weightb=1 / open_gop=0 / weightp=2 / keyint=600 / keyint_min=23 / scenecut=40 / intra_refresh=0 / rc=crf / mbtree=0 / crf=18.5 / qcomp=0.60 / qpmin=0 / qpmax=69 / qpstep=4 / ip_ratio=1.40 / pb_ratio=1.30 / aq=1:1.00
Язык : English
Default : Да
Forced : Нет

Аудио #1
Идентификатор : 2
Формат : AC-3
Формат/Информация : Audio Coding 3
Коммерческое название : Dolby Digital
Идентификатор кодека : A_AC3
Продолжительность : 3 ч. 1 м.
Вид битрейта : Постоянный
Битрейт : 384 Кбит/сек
Каналы : 6 каналов
Channel layout : L R C LFE Ls Rs
Частота : 48,0 КГц
Частота кадров : 31,250 кадров/сек (1536 SPF)
Битовая глубина : 16 бит
Метод сжатия : С потерями
Размер потока : 499 Мбайт (4%)
Заголовок : Дубляж (iTunes)
Язык : Russian
ServiceKind/String : Complete Main
Default : Да
Forced : Нет

Аудио #2
Идентификатор : 3
Формат : AC-3
Формат/Информация : Audio Coding 3
Коммерческое название : Dolby Digital
Идентификатор кодека : A_AC3
Продолжительность : 3 ч. 1 м.
Вид битрейта : Постоянный
Битрейт : 640 Кбит/сек
Каналы : 6 каналов
Channel layout : L R C LFE Ls Rs
Частота : 48,0 КГц
Частота кадров : 31,250 кадров/сек (1536 SPF)
Битовая глубина : 16 бит
Метод сжатия : С потерями
Размер потока : 829 Мбайт (7%)
Заголовок : Дубляж
Язык : Ukrainian
ServiceKind/String : Complete Main
Default : Нет
Forced : Нет

Аудио #3
Идентификатор : 4
Формат : AC-3
Формат/Информация : Audio Coding 3
Коммерческое название : Dolby Digital
Идентификатор кодека : A_AC3
Продолжительность : 3 ч. 1 м.
Вид битрейта : Постоянный
Битрейт : 640 Кбит/сек
Каналы : 6 каналов
Channel layout : L R C LFE Ls Rs
Частота : 48,0 КГц
Частота кадров : 31,250 кадров/сек (1536 SPF)
Битовая глубина : 16 бит
Метод сжатия : С потерями
Размер потока : 829 Мбайт (7%)
Заголовок : Original (BD 3D Eur)
Язык : English
ServiceKind/String : Complete Main
Default : Нет
Forced : Нет

Текст #1
Идентификатор : 5
Формат : UTF-8
Идентификатор кодека : S_TEXT/UTF8
Идентификатор кодека/Информация : UTF-8 Plain Text
Продолжительность : 3 ч. 0 м.
Битрейт : 78 бит/сек
ElementCount : 2627
Размер потока : 104 Кбайт (0%)
Заголовок : SDH (iTunes)
Язык : Russian
Default : Нет
Forced : Нет

Текст #2
Идентификатор : 6
Формат : UTF-8
Идентификатор кодека : S_TEXT/UTF8
Идентификатор кодека/Информация : UTF-8 Plain Text
Продолжительность : 2 ч. 34 м.
Битрейт : 1 бит/сек
ElementCount : 41
Размер потока : 1,43 Кбайт (0%)
Заголовок : Форсированные (вер. Ash61)
Язык : Ukrainian
Default : Нет
Forced : Нет

Текст #3
Идентификатор : 7
Формат : UTF-8
Идентификатор кодека : S_TEXT/UTF8
Идентификатор кодека/Информация : UTF-8 Plain Text
Продолжительность : 1 м. 34 с.
Битрейт : 21 бит/сек
ElementCount : 13
Размер потока : 257 байт (0%)
Заголовок : Forced (BD 3D Eur)
Язык : English
Default : Нет
Forced : Нет

Текст #4
Идентификатор : 8
Формат : UTF-8
Идентификатор кодека : S_TEXT/UTF8
Идентификатор кодека/Информация : UTF-8 Plain Text
Продолжительность : 2 ч. 47 м.
Битрейт : 49 бит/сек
ElementCount : 2329
Размер потока : 61,1 Кбайт (0%)
Заголовок : Full
Язык : English
Default : Нет
Forced : Нет

Текст #5
Идентификатор : 9
Формат : UTF-8
Идентификатор кодека : S_TEXT/UTF8
Идентификатор кодека/Информация : UTF-8 Plain Text
Продолжительность : 3 ч. 0 м.
Битрейт : 51 бит/сек
ElementCount : 2630
Размер потока : 68,3 Кбайт (0%)
Заголовок : SDH
Язык : English
Default : Нет
Forced : Нет

Меню
00:00:00.000 : : 1. One Last Surprise
00:08:05.902 : : 2. "To the Garden"
00:20:01.700 : : 3. Five Years Later
00:26:15.282 : : 4. "A Time Heist"
00:36:57.173 : : 5. "Time Travel Do-Over"
00:43:20.598 : : 6. "I Fixed It"
00:48:44.171 : : 7. Assembling the Avengers
00:57:36.745 : : 8. "Get the Stones, Get Them Back"
01:07:12.612 : : 9. Rogue Transmission
01:16:02.516 : : 10. New York, 2012
01:26:25.430 : : 11. Asgard, 2013
01:32:20.118 : : 12. Morag, 2014
01:38:55.805 : : 13. New Jersey, 1970
01:48:12.361 : : 14. Vormir, 2014
01:57:26.915 : : 15. "I Was Made for This"
02:05:00.243 : : 16. Thanos' Return
02:15:06.432 : : 17. Avengers Assemble
02:25:50.450 : : 18. One of the 14,000,605
02:34:37.935 : : 19. "Part of the Journey Is the End"
02:43:03.899 : : 20. "Clip All the Branches"
02:49:05.344 : : 21. End Credits

Просьба к переливающим на другие сайты, в оформлении указывайте пожалуйста авторство группы R.G. HD-Films



Скачать Мстители: Финал в 3D через торрент https://i.postimg.cc/QtFM4nm2/image.png Скачать, смотреть онлайн Мстители: Финал в 3D бесплантно в хорошем качестве Описание: Оставшиеся в живых члены команды Мстителей и их союзники должны разработать новый план, который поможет противостоять ... 5 10 1
Торрент: Зарегистрирован [2022-08-01 09:41] · скачан: 4 раз
Статус: √ проверено
Размер: 11.87 GB
Как cкачать? Как скачать Мстители: Финал в 3D через торрент | UTorrent

% Раздел Тема Автор DL S | L
3D Фильмы [ 17.73 GB ] Мстители: Финал в 3Д / Avengers: Endgame 3D | iTunes | 1080p serega768 Скачать
1 | 0

28-11-2019 20:33  


Отключить вcю реклaмy на сайте, в т.ч. и в плеере онлайн просмотра!

    Дорогой пользователь! Огромная просьба, поблагодарите релизера, оцените раздачу и оставьте свои комментарий, если Вы скачали Мстители: Финал в 3D через торрент бесплатно!!
    Комментировать посты могут только пользователи прошедшие не сложную регистрацию
    Показать сообщения:    


    Мстители: Финал в 3D через торрент
    Скачать бесплатно Мстители: Финал в 3D
    Мстители: Финал в 3D скачать торрент
    Мстители: Финал в 3D смотреть онлайн
    Cкачать фильм Мстители: Финал в 3D бесплатно
    Мстители: Финал в 3D скачать торрент в хорошем качестве
    Мстители: Финал в 3D смотреть онлайн бесплатно в хорошем качестве
    Вы не можете начинать темы
    Вы не можете отвечать на сообщения
    Вы не можете редактировать свои сообщения
    Вы не можете удалять свои сообщения
    Вы не можете голосовать в опросах
    Вы не можете прикреплять файлы к сообщениям
    Вы можете скачивать файлы
    Мстители: Финал в 3D / Avengers: Endgame 3D [2019 г., Фантастика, Боевик, Приключения, 3D BDRip 1080p, Дубляж iTunes] Анаглиф от R.G. HD-Films смотреть онлайн, скачать торрент picoco.icu