Доктор Стрэндж

Лицензия

Добыча

Дубляж

Уэнсдэй

1 сезон

Тор

Дубляж

В эфире

Дубляж

Там, где раки поют

MVO

Властелин колец

1 сезон

Deluxe

pack

Рекомендуем

30

Пиратка

ВАЖНО

ВАЖНО

Ghostwire

Пиратка

jed

RePack

nioh2

RePack

RDR2

RePack

NEED FOR SPEED™ PAYBACK

RePack

скачать торрент

Кинопоиск HD

Острые козырьки 6 сезон

6 сезон

FAR CRY 6

RePack

скачать торрент

Лицензия

скачать торрент

MVO

1

1 сезон

скачать торрент

1 сезон

скачать торрент

Лицензия

  

Санктум в 3Д / Sanctum 3D (Алистер Грирсон / Alister Grierson) [2011, Триллер, Драма, Приключения, BDRip, 1080p] OverUnder / Вертикальная стереопара

Санктум в 3Д через торрент pb.wtf

Размер: 25.84 GB | Добавлен: 4 мес. 3 д. назад | Торрент скачан:11 раз
Смотреть онлайн | Скачать   

02-08-2022 06:44 Санктум в 3Д Скачать торрент  

Санктум / Sanctum

Год выпуска: 2011
Страна: США, Австралия
Жанр: Триллер, Драма, Приключения
Продолжительность: 01:48:42

Перевод: Профессиональный (дублированный)
Русские субтитры: нет
Режиссер: Алистер Грирсон / Alister Grierson

В ролях: Ричард Роксбург, Риз Уэйкфилд, Йоан Гриффит, Элис Паркинсон, Дэниэл Уилли, Кристофер Бэйкер, Элисон Крэтчли, Крамер Кэйн, Эндрю Хансен, Джон Гарвин

Описание: Группа дайверов предпринимает очень рискованную экспедицию в самую большую систему пещер на Земле - невероятно красивую и почти недоступную. Неожиданный тропический шторм вынуждает их спуститься глубоко в пещеры. Единственное спасение для исследователей - найти неизвестный второй выход к морю, преодолевая неистовую стихию бушующих вод, коварные ловушки подземелий и смертельный ужас...

Сэмпл: http://sendfile.su/1653717

Качество: BDrip, 1080p
Контейнер: MKV
Формат 3D: OverUnder / Вертикальная стереопара
Порядок ракурсов: левый ракурс первый
Видео кодек: x264
Аудио кодек: DTS, AC3
Видео: AVC / [email protected] / 23,976 fps / 1920х2160 / 31,2 Мбит/сек
Аудио: Русский / DTS / 48 KHz / 5.1 ch / 1510 Кбит/сек
Аудио 2: Английский / AC3 / 48 KHz / 5.1 ch / 640 Кбит/сек

ВНИМАНИЕ ! На встроенных ТВ-плеерах работать не будет!!!

ТВ Samsung в названии которого есть надпись Ultra HD , и LG Ultra HD 800 серии, LG C6P, Xiaomi Mi TV 2, GRUNDIG VLE 8474 BL, Samsung UE48H6200AK, SUPRA STV-LC42ST960UL00 воспроизводят полные стереопары встроенными плеерами
Железные плееры на которых воспроизводятся полные стереопары:Popcorn C-200, Popcorn a-400, Dune HD Smart D1 , Dune HD DUO , Dune HD Smart H1 , Dune HD Smart B1 , Dune HD Max , Dune HD TV-303D, Dune HD TV-102, Dune HD Base 3D, Philips HMP7001, Aura HD, MECOOL BB2, Zidoo x9s, Lake I Cloud, MiBox 3, Oculus Quest 2
Чтобы изображение было на весь экран в плеере выставляем, если рип 1920х1600 - то выставляем 2.35:1 , если 1920х2160 - то выставляем 16:9

Общее
Уникальный идентификатор : 170180650963888438516406631029690358846 (0x800799E5ED763CF9855D2D3E5AA85C3E)
Полное имя : E:\Sanctum.Rip by SeRoGa00.mkv
Формат : Matroska
Версия формата : Version 2
Размер файла : 25,8 Гбайт
Продолжительность : 1 ч. 48 м.
Общий поток : 34,0 Мбит/сек
Дата кодирования : UTC 2022-04-23 06:09:14
Программа кодирования : mkvmerge v4.9.1 ('Ich will') сборка от Jul 11 2011 23:53:15
Библиотека кодирования : libebml v1.2.1 + libmatroska v1.1.1

Видео
Идентификатор : 1
Формат : AVC
Формат/Информация : Advanced Video Codec
Профиль формата : [email protected]
Параметр CABAC формата : Да
Параметр ReFrames формата : 4 кадра
Идентификатор кодека : V_MPEG4/ISO/AVC
Продолжительность : 1 ч. 48 м.
Битрейт : 31,2 Мбит/сек
Ширина : 1920 пикселей
Высота : 2160 пикселей
Соотношение сторон : 0,889
Частота кадров : 23,976 кадра/сек
Цветовое пространство : YUV
Субдискретизация насыщенности : 4:2:0
Битовая глубина : 8 бит
Тип развёртки : Прогрессивная
Бит/(Пиксели*Кадры) : 0.313
Размер потока : 23,7 Гбайт (92%)
Заголовок : Rip by SeRoGa00
Библиотека кодирования : x264 core 157 r2969 d4099dd
Настройки программы : cabac=1 / ref=4 / deblock=1:-3:-3 / analyse=0x3:0x113 / me=umh / subme=10 / psy=1 / psy_rd=1.00:0.15 / mixed_ref=1 / me_range=24 / chroma_me=1 / trellis=2 / 8x8dct=1 / cqm=0 / deadzone=21,11 / fast_pskip=1 / chroma_qp_offset=-3 / threads=12 / lookahead_threads=6 / sliced_threads=0 / nr=0 / decimate=0 / interlaced=0 / bluray_compat=0 / constrained_intra=0 / bframes=10 / b_pyramid=2 / b_adapt=2 / b_bias=0 / direct=3 / weightb=1 / open_gop=0 / weightp=2 / keyint=250 / keyint_min=23 / scenecut=40 / intra_refresh=0 / rc_lookahead=60 / rc=crf / mbtree=1 / crf=16.5 / qcomp=0.60 / qpmin=10 / qpmax=69 / qpstep=4 / vbv_maxrate=40000 / vbv_bufsize=40000 / crf_max=0.0 / nal_hrd=none / filler=0 / ip_ratio=1.40 / aq=1:1.00
Язык : English
Default : Да
Forced : Нет

Аудио #1
Идентификатор : 2
Формат : DTS
Формат/Информация : Digital Theater Systems
Идентификатор кодека : A_DTS
Продолжительность : 1 ч. 48 м.
Вид битрейта : Постоянный
Битрейт : 1510 Кбит/сек
Каналы : 6 каналов
Расположение каналов : Front: L C R, Side: L R, LFE
Частота : 48,0 КГц
Битовая глубина : 16 бит
Метод сжатия : С потерями
Размер потока : 1,15 Гбайт (4%)
Язык : Russian
Default : Да
Forced : Нет

Аудио #2
Идентификатор : 3
Формат : AC-3
Формат/Информация : Audio Coding 3
Расширение режима : CM (complete main)
Параметр Endianness формата : Big
Идентификатор кодека : A_AC3
Продолжительность : 1 ч. 48 м.
Вид битрейта : Постоянный
Битрейт : 640 Кбит/сек
Каналы : 6 каналов
Расположение каналов : Front: L C R, Side: L R, LFE
Частота : 48,0 КГц
Битовая глубина : 16 бит
Метод сжатия : С потерями
Размер потока : 498 Мбайт (2%)
Язык : English
Default : Нет
Forced : Нет

Меню
00:00:00.000 : en:00:00:00.000
00:07:29.656 : en:00:07:29.656
00:14:32.203 : en:00:14:32.203
00:20:11.585 : en:00:20:11.585
00:26:11.736 : en:00:26:11.736
00:34:05.334 : en:00:34:05.334
00:38:26.679 : en:00:38:26.679
00:46:45.469 : en:00:46:45.469
00:52:58.215 : en:00:52:58.215
00:57:39.414 : en:00:57:39.414
01:07:18.534 : en:01:07:18.534
01:14:39.557 : en:01:14:39.557
01:22:01.373 : en:01:22:01.373
01:28:52.034 : en:01:28:52.034
01:35:47.949 : en:01:35:47.949
01:44:07.658 : en:01:44:07.658



Скачать Санктум в 3Д через торрент https://i5-imageban-ru.translate.goog/out/2022/08/02/a2d7f6dae0b44e905f5a78a1e9e6d820.png Скачать, смотреть онлайн Санктум в 3Д бесплантно в хорошем качестве Описание: Группа дайверов предпринимает очень рискованную экспедицию в самую большую систему пещер на Земле - невероятно красивую и почти ... 5 10 1
Торрент: Зарегистрирован [2022-08-02 06:44] · скачан: 11 раз
Статус: √ проверено
Размер: 25.84 GB
Как cкачать? Как скачать Санктум в 3Д через торрент | UTorrent

28-11-2019 20:33  


Отключить вcю реклaмy на сайте, в т.ч. и в плеере онлайн просмотра!

    Дорогой пользователь! Огромная просьба, поблагодарите релизера, оцените раздачу и оставьте свои комментарий, если Вы скачали Санктум в 3Д через торрент бесплатно!!
    Комментировать посты могут только пользователи прошедшие не сложную регистрацию
    Показать сообщения:    


    Санктум в 3Д через торрент
    Скачать бесплатно Санктум в 3Д
    Санктум в 3Д скачать торрент
    Санктум в 3Д смотреть онлайн
    Cкачать фильм Санктум в 3Д бесплатно
    Санктум в 3Д скачать торрент в хорошем качестве
    Санктум в 3Д смотреть онлайн бесплатно в хорошем качестве
    Вы не можете начинать темы
    Вы не можете отвечать на сообщения
    Вы не можете редактировать свои сообщения
    Вы не можете удалять свои сообщения
    Вы не можете голосовать в опросах
    Вы не можете прикреплять файлы к сообщениям
    Вы можете скачивать файлы
    Санктум в 3Д / Sanctum 3D [2011, Триллер, Драма, Приключения, BDRip, 1080p] OverUnder / Вертикальная стереопара смотреть онлайн, скачать торрент picoco.icu