Доктор Стрэндж

Лицензия

Добыча

Дубляж

Уэнсдэй

1 сезон

Тор

Дубляж

В эфире

Дубляж

Там, где раки поют

MVO

Властелин колец

1 сезон

Deluxe

pack

Рекомендуем

30

Пиратка

ВАЖНО

ВАЖНО

Ghostwire

Пиратка

jed

RePack

nioh2

RePack

RDR2

RePack

NEED FOR SPEED™ PAYBACK

RePack

скачать торрент

Кинопоиск HD

Острые козырьки 6 сезон

6 сезон

FAR CRY 6

RePack

скачать торрент

Лицензия

скачать торрент

MVO

1

1 сезон

скачать торрент

1 сезон

скачать торрент

Лицензия

  

Доктор Стрэндж: В мультивселенной безумия в 3D / Doctor Strange in the Multiverse of Madness in 3D (Сэм Рэйми) [2022 г., Фантастика, фэнтези, боевик, приключения, ужасы, 3D BDRip 1080p, Дубляж] Анаглиф (Дюбуа) от R.G. HD-Films

Доктор Стрэндж: В мультивселенной безумия в 3D через торрент pb.wtf

Размер: 7.39 GB | Добавлен: 3 мес. 23 д. назад | Торрент скачан:9 раз
Смотреть онлайн | Скачать   

13-08-2022 11:34 Доктор Стрэндж: В мультивселенной безумия в 3D Скачать торрент  

Доктор Стрэндж: В мультивселенной безумия / Doctor Strange in the Multiverse of Madness
Год выпуска: 2022
Страна: США
Жанр: Фантастика, фэнтези, боевик, приключения, ужасы
Продолжительность: 02:06:31
Перевод: Дублированный | Невафильм
Субтитры: Русские (Forced вшитые, full), украинские Forced, английские

Режиссер: Сэм Рэйми

Бюджет: $200 000 000
Премьера в мире: 2 мая 2022

rating

В ролях: Бенедикт Камбербэтч, Элизабет Олсен, Чиветел Эджиофор, Бенедикт Вонг, Сочил Гомес, Майкл Стулбарг, Рэйчел МакАдамс, Патрик Стюарт, Брюс Кэмпбелл, Джулиан Хиллиард

Описание: Продолжение истории величайшего мага Земли доктора Стивена Стрэнджа. С помощью старых и новых мистических союзников Стрэндж отправляется в мультивселенную, чтобы сразиться с новым таинственным противником.

Доп. информация: Формат 3D: Анаглиф (Дюбуа)



Качество: 3D BDRip 1080p
Формат: MKV
Видео кодек: H.264
Аудио кодек: AC3
Видео: x264, 1920 x 1080 (16:9), 6891 kbps, 23,976 fps, ( 0.139 bpp)
Аудио#1: Русский, AC-3, 48.0 KHz, 6 ch, 448 Kbps Дубляж (Невафильм)
Аудио#2: Украинский / AC3 / 48 KHz / 5.1 ch / 384 Kbps (MVO - HDRezka) (DniproFilm)
Аудио#3: English / AC3 / 48 KHz / 5.1 ch / 640 Kbps (Original - BD 3D Jap)
Релиз от: Автор рипа: slaventi-69
x264 [info]: using cpu capabilities: MMX2 SSE2Fast SSSE3 SSE4.2 AVX AVX2 FMA3 LZCNT BMI1 BMI2
x264 [info]: profile High, level 4.1
x264 [info]: frame I:1832 Avg QP:12.62 size:152473
x264 [info]: frame P:51732 Avg QP:14.14 size: 64318
x264 [info]: frame B:128445 Avg QP:16.09 size: 22828
x264 [info]: consecutive B-frames: 4.6% 5.9% 14.8% 39.9% 34.8%


Общее
Уникальный идентификатор : 313435930526327133930646374495526307965 (0xEBCD907E23FF812FE5721CD86F1FC87D)
Полное имя : G:\60 FPS\Doctor.Strange.in.the.Multiverse.of.Madness.(2022).3D.(Anaglyph_Dubois).mkv
Формат : Matroska
Версия формата : Version 4
Размер файла : 7,39 Гбайт
Продолжительность : 2 ч. 6 м.
Общий поток : 8365 Кбит/сек
Название фильма : Доктор Стрэндж: В мультивселенной безумия / Доктор Стрендж у Мультивсесвіті божевілля / Doctor Strange in the Multiverse of Madness (2022) in 3D (Anaglyph_Dubois)
Дата кодирования : UTC 2022-08-13 10:13:18
Программа кодирования : mkvmerge v69.0.0 ('Day And Age') 64-bit
Библиотека кодирования : libebml v1.4.2 + libmatroska v1.6.4

Видео
Идентификатор : 1
Формат : AVC
Формат/Информация : Advanced Video Codec
Профиль формата : [email protected]
MultiView_Count : 2
MultiView_Layout : Anaglyph (cyan/red)
Настройки формата : CABAC / 4 Ref Frames
Параметр CABAC формата : Да
Параметр RefFrames формата : 4 кадра
Идентификатор кодека : V_MPEG4/ISO/AVC
Продолжительность : 2 ч. 6 м.
Битрейт : 6891 Кбит/сек
Ширина : 1920 пикселей
Высота : 1080 пикселей
Соотношение сторон : 16:9
Режим частоты кадров : Постоянный
Частота кадров : 23,976 (24000/1001) кадра/сек
Цветовое пространство : YUV
Субдискретизация насыщенности : 4:2:0
Битовая глубина : 8 бит
Тип развёртки : Прогрессивная
Бит/(Пиксели*Кадры) : 0.139
Размер потока : 6,09 Гбайт (82%)
Заголовок : slaventi-69 ( R.G. HD-Films ) 3Д (Anaglyph_Dubois)
Библиотека кодирования : x264 core 130 r2273 b3065e6
Настройки программы : cabac=1 / ref=4 / deblock=1:-3:-3 / analyse=0x3:0x133 / me=umh / subme=9 / psy=1 / psy_rd=1.00:0.00 / mixed_ref=1 / me_range=32 / chroma_me=1 / trellis=2 / 8x8dct=1 / cqm=0 / deadzone=21,11 / fast_pskip=0 / chroma_qp_offset=-2 / threads=8 / lookahead_threads=4 / sliced_threads=0 / nr=0 / decimate=1 / interlaced=0 / bluray_compat=0 / constrained_intra=0 / bframes=4 / b_pyramid=2 / b_adapt=2 / b_bias=0 / direct=1 / weightb=1 / open_gop=0 / weightp=2 / keyint=600 / keyint_min=23 / scenecut=40 / intra_refresh=0 / rc=crf / mbtree=0 / crf=19.5 / qcomp=0.60 / qpmin=0 / qpmax=69 / qpstep=4 / ip_ratio=1.40 / pb_ratio=1.30 / aq=1:1.00
Язык : English
Default : Да
Forced : Нет

Аудио #1
Идентификатор : 2
Формат : AC-3
Формат/Информация : Audio Coding 3
Коммерческое название : Dolby Digital
Идентификатор кодека : A_AC3
Продолжительность : 2 ч. 6 м.
Вид битрейта : Постоянный
Битрейт : 448 Кбит/сек
Каналы : 6 каналов
Channel layout : L R C LFE Ls Rs
Частота : 48,0 КГц
Частота кадров : 31,250 кадров/сек (1536 SPF)
Битовая глубина : 16 бит
Метод сжатия : С потерями
Размер потока : 405 Мбайт (5%)
Заголовок : Дубляж (Невафильм)
Язык : Russian
ServiceKind/String : Complete Main
Default : Да
Forced : Нет

Аудио #2
Идентификатор : 3
Формат : AC-3
Формат/Информация : Audio Coding 3
Коммерческое название : Dolby Digital
Идентификатор кодека : A_AC3
Продолжительность : 2 ч. 6 м.
Вид битрейта : Постоянный
Битрейт : 384 Кбит/сек
Каналы : 6 каналов
Channel layout : L R C LFE Ls Rs
Частота : 48,0 КГц
Частота кадров : 31,250 кадров/сек (1536 SPF)
Битовая глубина : 16 бит
Метод сжатия : С потерями
Размер потока : 347 Мбайт (5%)
Заголовок : MVO - HDRezka / DniproFilm
Язык : Ukrainian
ServiceKind/String : Complete Main
Default : Нет
Forced : Нет

Аудио #3
Идентификатор : 4
Формат : AC-3
Формат/Информация : Audio Coding 3
Коммерческое название : Dolby Digital
Идентификатор кодека : A_AC3
Продолжительность : 2 ч. 6 м.
Вид битрейта : Постоянный
Битрейт : 640 Кбит/сек
Каналы : 6 каналов
Channel layout : L R C LFE Ls Rs
Частота : 48,0 КГц
Частота кадров : 31,250 кадров/сек (1536 SPF)
Битовая глубина : 16 бит
Метод сжатия : С потерями
Размер потока : 579 Мбайт (8%)
Заголовок : Original
Язык : English
ServiceKind/String : Complete Main
Default : Нет
Forced : Нет

Текст #1
Идентификатор : 5
Формат : UTF-8
Идентификатор кодека : S_TEXT/UTF8
Идентификатор кодека/Информация : UTF-8 Plain Text
Продолжительность : 2 ч. 5 м.
Битрейт : 68 бит/сек
ElementCount : 1253
Размер потока : 62,4 Кбайт (0%)
Заголовок : Полные
Язык : Russian
Default : Нет
Forced : Нет

Текст #2
Идентификатор : 6
Формат : UTF-8
Идентификатор кодека : S_TEXT/UTF8
Идентификатор кодека/Информация : UTF-8 Plain Text
Продолжительность : 1 ч. 51 м.
Битрейт : 1 бит/сек
ElementCount : 18
Размер потока : 1,02 Кбайт (0%)
Заголовок : Форсированные (для HDRezka)
Язык : Ukrainian
Default : Нет
Forced : Нет

Текст #3
Идентификатор : 7
Формат : UTF-8
Идентификатор кодека : S_TEXT/UTF8
Идентификатор кодека/Информация : UTF-8 Plain Text
Продолжительность : 25 м. 8 с.
Битрейт : 1 бит/сек
ElementCount : 10
Размер потока : 265 байт (0%)
Заголовок : Forced
Язык : English
Default : Нет
Forced : Нет

Текст #4
Идентификатор : 8
Формат : UTF-8
Идентификатор кодека : S_TEXT/UTF8
Идентификатор кодека/Информация : UTF-8 Plain Text
Продолжительность : 2 ч. 5 м.
Битрейт : 36 бит/сек
ElementCount : 1249
Размер потока : 33,8 Кбайт (0%)
Заголовок : Full
Язык : English
Default : Нет
Forced : Нет

Меню
00:00:00.000 : :1
00:03:51.398 : :2
00:08:26.506 : :3
00:14:19.442 : :4
00:18:23.060 : :5
00:24:37.601 : :6
00:37:58.151 : :7
00:47:15.499 : :8
00:50:03.542 : :9
00:55:51.056 : :10
00:59:46.333 : :11
01:02:19.653 : :12
01:05:18.414 : :13
01:07:20.787 : :14
01:15:03.582 : :15
01:17:01.867 : :16
01:19:18.420 : :17
01:23:29.338 : :18
01:26:34.189 : :19
01:28:51.326 : :20
01:34:47.307 : :21
01:37:38.644 : :22
01:41:27.623 : :23
01:51:03.282 : :24
01:53:26.466 : :25
01:55:38.849 : :26
01:56:32.068 : :27
01:58:48.371 : :28
01:59:26.159 : :29

Просьба к переливающим на другие сайты, в оформлении указывайте пожалуйста авторство группы R.G. HD-Films



Скачать Доктор Стрэндж: В мультивселенной безумия в 3D через торрент https://i.postimg.cc/NfcfBsQf/1ir-Kx6-Kp-o.png Скачать, смотреть онлайн Доктор Стрэндж: В мультивселенной безумия в 3D бесплантно в хорошем качестве Описание: Продолжение истории величайшего мага Земли доктора Стивена Стрэнджа. С помощью старых и новых мистических союзников Стрэндж ... 5 10 1
Торрент: Зарегистрирован [2022-08-13 11:34] · скачан: 9 раз
Статус: √ проверено
Размер: 7.39 GB
Как cкачать? Как скачать Доктор Стрэндж: В мультивселенной безумия в 3D через торрент | UTorrent

% Раздел Тема Автор DL S | L
3D Фильмы [ 15.28 GB ] Доктор Стрэндж: В мультивселенной безумия в 3Д / Doctor Strange in the Multiverse of Madness 3D | / Вертикальная стереопара | 1080p serega768 Скачать
3 | 0

28-11-2019 20:33  


Отключить вcю реклaмy на сайте, в т.ч. и в плеере онлайн просмотра!

    Дорогой пользователь! Огромная просьба, поблагодарите релизера, оцените раздачу и оставьте свои комментарий, если Вы скачали Доктор Стрэндж: В мультивселенной безумия в 3D через торрент бесплатно!!
    Комментировать посты могут только пользователи прошедшие не сложную регистрацию
    Показать сообщения:    


    Доктор Стрэндж: В мультивселенной безумия в 3D через торрент
    Скачать бесплатно Доктор Стрэндж: В мультивселенной безумия в 3D
    Доктор Стрэндж: В мультивселенной безумия в 3D скачать торрент
    Доктор Стрэндж: В мультивселенной безумия в 3D смотреть онлайн
    Cкачать фильм Доктор Стрэндж: В мультивселенной безумия в 3D бесплатно
    Доктор Стрэндж: В мультивселенной безумия в 3D скачать торрент в хорошем качестве
    Доктор Стрэндж: В мультивселенной безумия в 3D смотреть онлайн бесплатно в хорошем качестве
    Вы не можете начинать темы
    Вы не можете отвечать на сообщения
    Вы не можете редактировать свои сообщения
    Вы не можете удалять свои сообщения
    Вы не можете голосовать в опросах
    Вы не можете прикреплять файлы к сообщениям
    Вы можете скачивать файлы
    Доктор Стрэндж: В мультивселенной безумия в 3D / Doctor Strange in the Multiverse of Madness in 3D [2022 г., Фантастика, фэнтези, боевик, приключения, ужасы, 3D BDRip 1080p, Дубляж] Анаглиф от R.G. HD-Films смотреть онлайн, скачать торрент picoco.icu