Доктор Стрэндж

Лицензия

Добыча

Дубляж

Уэнсдэй

1 сезон

Тор

Дубляж

В эфире

Дубляж

Там, где раки поют

MVO

Властелин колец

1 сезон

Deluxe

pack

Рекомендуем

30

Пиратка

ВАЖНО

ВАЖНО

Ghostwire

Пиратка

jed

RePack

nioh2

RePack

RDR2

RePack

NEED FOR SPEED™ PAYBACK

RePack

скачать торрент

Кинопоиск HD

Острые козырьки 6 сезон

6 сезон

FAR CRY 6

RePack

скачать торрент

Лицензия

скачать торрент

MVO

1

1 сезон

скачать торрент

1 сезон

скачать торрент

Лицензия

  

Хан Соло: Звёздные войны. Истории в 3D / Solo: A Star Wars Story in 3D (Рон Ховард) [2018 г., фантастика, фэнтези, боевик, приключения, 3D BDRip 1080p, Дубляж] Анаглиф (Дюбуа) от R.G. HD-Films

Хан Соло: Звёздные войны. Истории в 3D через торрент pb.wtf

Размер: 8.84 GB | Добавлен: 3 мес. 17 д. назад | Торрент скачан:7 раз
Смотреть онлайн | Скачать   

18-08-2022 10:03 Хан Соло: Звёздные войны. Истории в 3D Скачать торрент  

Хан Соло: Звёздные войны. Истории / Solo: A Star Wars Story
Год выпуска: 2018
Страна: США
Жанр: фантастика, фэнтези, боевик, приключения
Продолжительность: 02:14:59
Перевод: Дубляж
Субтитры: Русские (Forced вшитые, full), украинские (Forced), английские

Режиссер: Рон Ховард

Бюджет: $300 000 000
Премьера в мире: 10 мая 2018

rating

В ролях: Олден Эренрайк, Йонас Суотамо, Вуди Харрельсон, Эмилия Кларк, Дональд Гловер, Тэнди Ньютон, Фиби Уоллер-Бридж, Пол Беттани, Джон Фавро, Линда Хант

Описание: Фильм расскажет о похождениях юного космического сорвиголовы Хана Соло и его верного напарника Чубакки и о том, как они стали самыми быстрыми пилотами и самыми хитрыми контрабандистами далёкой Галактики.

Доп. информация: Формат 3D: Анаглиф (Дюбуа)



Качество: 3D BDRip 1080p
Формат: MKV
Видео кодек: H.264
Аудио кодек: AC3
Видео: 1920 x 1080 (16:9), 7470 kbps, 23,976 fps, 0.150 bpp
Аудио#1: Русский / AC3 / 48 KHz / 5.1 ch / 640 Kbps (Дубляж - BD Eur)
Аудио#2: Украинский / AC3 / 48 KHz / 5.1 ch / 640 Kbps (Дубляж) [спасибо Hurtom!]
Аудио#3: Английский / AC3 / 48 KHz / 5.1 ch / 640 Kbps (Original - BD 3D)
Релиз от: Автор рипа: slaventi-69
x264 [info]: using cpu capabilities: MMX2 SSE2Fast SSSE3 SSE4.2 AVX AVX2 FMA3 LZCNT BMI1 BMI2
x264 [info]: profile High, level 4.1
x264 [info]: frame I:1912 Avg QP:10.60 size:147547
x264 [info]: frame P:55873 Avg QP:12.08 size: 69410
x264 [info]: frame B:136104 Avg QP:13.93 size: 24916
x264 [info]: consecutive B-frames: 5.1% 6.3% 16.6% 31.7% 40.2%


Общее
Уникальный идентификатор : 317772393052193905775013762267114289420 (0xEF10BC9A32CB3B07EBEF982F0702B90C)
Полное имя : G:\60 FPS\Solo_A.Star.Wars.Story.(2018).3D.(Anaglyph_Dubois).mkv
Формат : Matroska
Версия формата : Version 4
Размер файла : 8,84 Гбайт
Продолжительность : 2 ч. 14 м.
Общий поток : 9393 Кбит/сек
Название фильма : Хан Соло: Звёздные войны. Истории / Solo: A Star Wars Story (2018) in 3D (Anaglyph_Dubois)
Дата кодирования : UTC 2022-08-17 09:11:26
Программа кодирования : mkvmerge v69.0.0 ('Day And Age') 64-bit
Библиотека кодирования : libebml v1.4.2 + libmatroska v1.6.4

Видео
Идентификатор : 1
Формат : AVC
Формат/Информация : Advanced Video Codec
Профиль формата : [email protected]
MultiView_Count : 2
MultiView_Layout : Anaglyph (cyan/red)
Настройки формата : CABAC / 4 Ref Frames
Параметр CABAC формата : Да
Параметр RefFrames формата : 4 кадра
Идентификатор кодека : V_MPEG4/ISO/AVC
Продолжительность : 2 ч. 14 м.
Битрейт : 7470 Кбит/сек
Ширина : 1920 пикселей
Высота : 1080 пикселей
Соотношение сторон : 16:9
Режим частоты кадров : Постоянный
Частота кадров : 23,976 (24000/1001) кадра/сек
Цветовое пространство : YUV
Субдискретизация насыщенности : 4:2:0
Битовая глубина : 8 бит
Тип развёртки : Прогрессивная
Бит/(Пиксели*Кадры) : 0.150
Размер потока : 7,03 Гбайт (80%)
Заголовок : slaventi-69 ( R.G. HD-Films ) 3Д (Anaglyph_Dubois)
Библиотека кодирования : x264 core 130 r2273 b3065e6
Настройки программы : cabac=1 / ref=4 / deblock=1:-3:-3 / analyse=0x3:0x133 / me=umh / subme=9 / psy=1 / psy_rd=1.00:0.00 / mixed_ref=1 / me_range=32 / chroma_me=1 / trellis=2 / 8x8dct=1 / cqm=0 / deadzone=21,11 / fast_pskip=0 / chroma_qp_offset=-2 / threads=8 / lookahead_threads=4 / sliced_threads=0 / nr=0 / decimate=1 / interlaced=0 / bluray_compat=0 / constrained_intra=0 / bframes=4 / b_pyramid=2 / b_adapt=2 / b_bias=0 / direct=1 / weightb=1 / open_gop=0 / weightp=2 / keyint=600 / keyint_min=23 / scenecut=40 / intra_refresh=0 / rc=crf / mbtree=0 / crf=18.7 / qcomp=0.60 / qpmin=0 / qpmax=69 / qpstep=4 / ip_ratio=1.40 / pb_ratio=1.30 / aq=1:1.00
Язык : English
Default : Да
Forced : Нет

Аудио #1
Идентификатор : 2
Формат : AC-3
Формат/Информация : Audio Coding 3
Коммерческое название : Dolby Digital
Идентификатор кодека : A_AC3
Продолжительность : 2 ч. 14 м.
Вид битрейта : Постоянный
Битрейт : 640 Кбит/сек
Каналы : 6 каналов
Channel layout : L R C LFE Ls Rs
Частота : 48,0 КГц
Частота кадров : 31,250 кадров/сек (1536 SPF)
Битовая глубина : 16 бит
Метод сжатия : С потерями
Размер потока : 617 Мбайт (7%)
Заголовок : Дубляж (BD 3D CEE)
Язык : Russian
ServiceKind/String : Complete Main
Default : Да
Forced : Нет

Аудио #2
Идентификатор : 3
Формат : AC-3
Формат/Информация : Audio Coding 3
Коммерческое название : Dolby Digital
Идентификатор кодека : A_AC3
Продолжительность : 2 ч. 14 м.
Вид битрейта : Постоянный
Битрейт : 640 Кбит/сек
Каналы : 6 каналов
Channel layout : L R C LFE Ls Rs
Частота : 48,0 КГц
Частота кадров : 31,250 кадров/сек (1536 SPF)
Битовая глубина : 16 бит
Метод сжатия : С потерями
Размер потока : 617 Мбайт (7%)
Заголовок : Дубляж
Язык : Ukrainian
ServiceKind/String : Complete Main
Default : Нет
Forced : Нет

Аудио #3
Идентификатор : 4
Формат : AC-3
Формат/Информация : Audio Coding 3
Коммерческое название : Dolby Digital
Идентификатор кодека : A_AC3
Продолжительность : 2 ч. 14 м.
Вид битрейта : Постоянный
Битрейт : 640 Кбит/сек
Каналы : 6 каналов
Channel layout : L R C LFE Ls Rs
Частота : 48,0 КГц
Частота кадров : 31,250 кадров/сек (1536 SPF)
Битовая глубина : 16 бит
Метод сжатия : С потерями
Размер потока : 617 Мбайт (7%)
Заголовок : Original (BD 3D CEE)
Язык : English
ServiceKind/String : Complete Main
Default : Нет
Forced : Нет

Текст #1
Идентификатор : 5
Формат : UTF-8
Идентификатор кодека : S_TEXT/UTF8
Идентификатор кодека/Информация : UTF-8 Plain Text
Продолжительность : 2 ч. 7 м.
Битрейт : 69 бит/сек
ElementCount : 1835
Размер потока : 64,5 Кбайт (0%)
Заголовок : Полные (BD)
Язык : Russian
Default : Нет
Forced : Нет

Текст #2
Идентификатор : 6
Формат : UTF-8
Идентификатор кодека : S_TEXT/UTF8
Идентификатор кодека/Информация : UTF-8 Plain Text
Продолжительность : 2 ч. 5 м.
Битрейт : 96 бит/сек
ElementCount : 2246
Размер потока : 88,7 Кбайт (0%)
Заголовок : SDH
Язык : Russian
Default : Нет
Forced : Нет

Текст #3
Идентификатор : 7
Формат : UTF-8
Идентификатор кодека : S_TEXT/UTF8
Идентификатор кодека/Информация : UTF-8 Plain Text
Продолжительность : 1 ч. 20 м.
Битрейт : 2 бит/сек
ElementCount : 23
Размер потока : 1,29 Кбайт (0%)
Заголовок : Форсированные
Язык : Ukrainian
Default : Нет
Forced : Нет

Текст #4
Идентификатор : 8
Формат : UTF-8
Идентификатор кодека : S_TEXT/UTF8
Идентификатор кодека/Информация : UTF-8 Plain Text
Продолжительность : 1 ч. 17 м.
Битрейт : 0 бит/сек
ElementCount : 16
Размер потока : 362 байт (0%)
Заголовок : Forced (BD 3D)
Язык : English
Default : Нет
Forced : Нет

Текст #5
Идентификатор : 9
Формат : UTF-8
Идентификатор кодека : S_TEXT/UTF8
Идентификатор кодека/Информация : UTF-8 Plain Text
Продолжительность : 2 ч. 5 м.
Битрейт : 56 бит/сек
ElementCount : 1959
Размер потока : 51,8 Кбайт (0%)
Заголовок : Full (extracted from SDH)
Язык : Russian
Default : Нет
Forced : Нет

Текст #6
Идентификатор : 10
Формат : UTF-8
Идентификатор кодека : S_TEXT/UTF8
Идентификатор кодека/Информация : UTF-8 Plain Text
Продолжительность : 2 ч. 5 м.
Битрейт : 63 бит/сек
ElementCount : 2248
Размер потока : 58,6 Кбайт (0%)
Заголовок : SDH (BD 3D)
Язык : English
Default : Нет
Forced : Нет

Меню
00:00:00.000 : : 1. Начало / Opening Credits
00:00:53.844 : : 2. Улицы Кореллии / Streets of Corellia
00:02:10.212 : : 3. Кира / Qi'ra
00:03:53.149 : : 4. Логово "Белых червей" / Den of The White Worms
00:06:00.485 : : 5. Погоня на спидерах / Corellian Speeder Chase
00:09:27.566 : : 6. Космопорт / Coronet Spaceport
00:13:16.044 : : 7. Вербовка / Recruitment
00:14:14.019 : : 8. Поле боя на Мимбане / Mimban Battlefield
00:16:12.261 : : 9. Рота "Не твоё дело" / None-of-Your-Business Company
00:19:45.099 : : 10. Зверь / The Beast
00:22:43.819 : : 11. Бегство с Мимбана / Mimban Escape
00:24:37.267 : : 12. Вандор / Vandor
00:27:00.035 : : 13. Истории у костра / Camfire Stories
00:30:02.925 : : 14. Ограбление конвейэкса / Conveyex Heist
00:32:54.681 : : 15. Нападение мародёров / Marauder Attack
00:39:09.764 : : 16. "Ты обречён на такую жизнь" / "You're in This Life for Good"
00:41:59.224 : : 17. Яхта / The Yacht
00:43:20.179 : : 18. Драйден Вос / Dryden Vos
00:44:32.126 : : 19. Воссоединение / Reunion
00:48:03.755 : : 20. Кримзон Дон / Deal with Crimson Dawn
00:51:58.322 : : 21. Знакомство с Лэндо / The Lodge
00:53:17.527 : : 22. Полный Сабакк / Full Sabacc
00:57:23.523 : : 23. Лэндо и L3 / Lando and L3
01:00:16.778 : : 24. Сокол тысячелетия / Millennium Falcon
01:02:40.882 : : 25. "Тебе лучше пристегнуться" / "Buckle Up, Baby"
01:04:51.262 : : 26. "Люди предсказуемы" / "People Are Predictable"
01:05:29.507 : : 27. Хан и Кира / Han and Qi'ra
01:07:12.027 : : 28. "Я никому не доверяю" / "Trust No One"
01:08:05.914 : : 29. Несовместимы / Not Compatible
01:10:00.112 : : 30. Прибытие на Кессель / Arrival on Kessel
01:12:44.193 : : 31. В шахты / Into the Mines
01:14:40.850 : : 32. Мятеж / Revolt
01:18:30.872 : : 33. Перестрелка на Кесселе / Kessel Shootout
01:23:15.739 : : 34. В Мальстрём / Into the Maelstrom
01:26:32.645 : : 35. Дуга Кесселя / Kessel Run
01:30:33.136 : : 36. Вырваться из утробы / Escaping the Maw
01:35:19.671 : : 37. Саварин / Savareen
01:37:04.859 : : 38. Хороший парень / The Good Guy
01:38:52.801 : : 39. Возвращение мародёров / Marauders Return
01:41:18.529 : : 40. Энфис Нест / Enfys Nest
01:43:02.676 : : 41. "Я выхожу из игры" / One Last Score
01:45:27.820 : : 42. Доставка / The Delivery
01:46:32.176 : : 43. Взрывчатка / Explosive Stuff
01:49:45.996 : : 44. Предательство / Double-Crossings
01:53:33.890 : : 45. Поединок с Драйденом / Duel with Dryden
01:57:13.900 : : 46. Тайный лидер / Secret Leader
01:58:55.127 : : 47. Стычка / Showdown
02:01:34.828 : : 48. Рассвет сопротивления / Rebellion's Dawn
02:03:20.893 : : 49. Реванш Сабакк / Sabacc Rematch
02:06:09.353 : : 50. Финальные титры / End Credits

Просьба к переливающим на другие сайты, в оформлении указывайте пожалуйста авторство группы R.G. HD-Films



Скачать Хан Соло: Звёздные войны. Истории в 3D через торрент https://i120.fastpic.org/big/2022/0818/cf/e268dba0133f83a9ec3a571c869eb3cf.jpg Скачать, смотреть онлайн Хан Соло: Звёздные войны. Истории в 3D бесплантно в хорошем качестве Описание: Фильм расскажет о похождениях юного космического сорвиголовы Хана Соло и его верного напарника Чубакки и о том, как они стали ... 10 10 2
Торрент: Зарегистрирован [2022-08-18 10:03] · скачан: 7 раз
Статус: √ проверено
Размер: 8.84 GB
Как cкачать? Как скачать Хан Соло: Звёздные войны. Истории в 3D через торрент | UTorrent

% Раздел Тема Автор DL S | L
3D Фильмы [ 14.57 GB ] Хан Соло: Звёздные войны. Истории в 3Д / Solo: A Star Wars Story 3D | | 1080p serega768 Скачать
1 | 0

28-11-2019 20:33  


Отключить вcю реклaмy на сайте, в т.ч. и в плеере онлайн просмотра!

    Дорогой пользователь! Огромная просьба, поблагодарите релизера, оцените раздачу и оставьте свои комментарий, если Вы скачали Хан Соло: Звёздные войны. Истории в 3D через торрент бесплатно!!
    Комментировать посты могут только пользователи прошедшие не сложную регистрацию
    Показать сообщения:    


    Хан Соло: Звёздные войны. Истории в 3D через торрент
    Скачать бесплатно Хан Соло: Звёздные войны. Истории в 3D
    Хан Соло: Звёздные войны. Истории в 3D скачать торрент
    Хан Соло: Звёздные войны. Истории в 3D смотреть онлайн
    Cкачать фильм Хан Соло: Звёздные войны. Истории в 3D бесплатно
    Хан Соло: Звёздные войны. Истории в 3D скачать торрент в хорошем качестве
    Хан Соло: Звёздные войны. Истории в 3D смотреть онлайн бесплатно в хорошем качестве
    Вы не можете начинать темы
    Вы не можете отвечать на сообщения
    Вы не можете редактировать свои сообщения
    Вы не можете удалять свои сообщения
    Вы не можете голосовать в опросах
    Вы не можете прикреплять файлы к сообщениям
    Вы можете скачивать файлы
    Хан Соло: Звёздные войны. Истории в 3D / Solo: A Star Wars Story in 3D [2018 г., фантастика, фэнтези, боевик, приключения, 3D BDRip 1080p, Дубляж] Анаглиф от R.G. HD-Films смотреть онлайн, скачать торрент picoco.icu