Доктор Стрэндж

Лицензия

Добыча

Дубляж

Уэнсдэй

1 сезон

Тор

Дубляж

В эфире

Дубляж

Там, где раки поют

MVO

Властелин колец

1 сезон

Deluxe

pack

Рекомендуем

30

Пиратка

ВАЖНО

ВАЖНО

Ghostwire

Пиратка

jed

RePack

nioh2

RePack

RDR2

RePack

NEED FOR SPEED™ PAYBACK

RePack

скачать торрент

Кинопоиск HD

Острые козырьки 6 сезон

6 сезон

FAR CRY 6

RePack

скачать торрент

Лицензия

скачать торрент

MVO

1

1 сезон

скачать торрент

1 сезон

скачать торрент

Лицензия

  

Человек-паук: Нет пути домой в 3Д / Spider-Man: No Way Home 3D (Джон Уоттс / Jon Watts) [2021, фантастика, боевик, приключения, фэнтези, BDRip, 1080p] OverUnder / Вертикальная стереопара (Дуб)

Человек-паук: Нет пути домой в 3Д через торрент pb.wtf

Размер: 18.81 GB | Добавлен: 3 мес. 18 д. назад | Торрент скачан:13 раз
Смотреть онлайн | Скачать   

18-08-2022 11:06 Человек-паук: Нет пути домой в 3Д Скачать торрент  

Человек-паук: Нет пути домой / Spider-Man: No Way Home

Год выпуска: 2021
Страна: США(Marvel Studios)
Жанр: фантастика, боевик, приключения, фэнтези
Продолжительность: 02:28:09

Перевод: Профессиональный (дублированный)
Русские субтитры: нет
Режиссер: Джон Уоттс / Jon Watts

В ролях: Том Холланд, Зендея, Бенедикт Камбербэтч, Мариса Томей, Уиллем Дефо, Альфред Молина, Джейми Фокс, Томас Хейден Чёрч, Рис Иванс, Джейкоб Баталон

Описание: Жизнь и репутация Питера Паркера оказываются под угрозой, поскольку Мистерио раскрыл всему миру тайну личности Человека-паука. Пытаясь исправить ситуацию, Питер обращается за помощью к Стивену Стрэнджу, но вскоре всё становится намного опаснее.

Сэмпл: http://sendfile.su/1655272

Качество: BDrip, 1080p
Контейнер: MKV
Формат 3D: OverUnder / Вертикальная стереопара
Порядок ракурсов: левый ракурс первый
Видео кодек: x264
Аудио кодек: AC3
Видео: AVC / [email protected] / 23,976 fps / 1920х2160 / 15,0 Мбит/сек
Аудио 2: Русский / AC3 / 48 KHz / 5.1 ch / 640 Кбит/сек(Дуб)
Аудио 3: Русский / AC3 / 48 KHz / 5.1 ch / 448 Кбит/сек(MVO - HDRezka)
Аудио 4: Русский / AC3 / 48 KHz / 5.1 ch / 384 Кбит/сек(MVO - Jaskier)
Аудио 5: Русский / AC3 / 48 KHz / 5.1 ch / 640 Кбит/сек(Д. Есарев)
Аудио 6: Английский / AC3 / 48 KHz / 5.1 ch / 640 Кбит/сек

ВНИМАНИЕ ! На встроенных ТВ-плеерах работать не будет!!!

ТВ Samsung в названии которого есть надпись Ultra HD , и LG Ultra HD 800 серии, LG C6P, Xiaomi Mi TV 2, GRUNDIG VLE 8474 BL, Samsung UE48H6200AK, SUPRA STV-LC42ST960UL00 воспроизводят полные стереопары встроенными плеерами
Железные плееры на которых воспроизводятся полные стереопары:Popcorn C-200, Popcorn a-400, Dune HD Smart D1 , Dune HD DUO , Dune HD Smart H1 , Dune HD Smart B1 , Dune HD Max , Dune HD TV-303D, Dune HD TV-102, Dune HD Base 3D, Philips HMP7001, Aura HD, MECOOL BB2, Zidoo x9s, Lake I Cloud, MiBox 3, Oculus Quest 2
Чтобы изображение было на весь экран в плеере выставляем, если рип 1920х1600 - то выставляем 2.35:1 , если 1920х2160 - то выставляем 16:9

Общее
Уникальный идентификатор : 181356115128450078040288628741854235248 (0x886FEAD25C8CBEADB43631477C908A70)
Полное имя : D:\Spider-Man No Way Home.Rip by SeRoGa00.mkv
Формат : Matroska
Версия формата : Version 2
Размер файла : 18,8 Гбайт
Продолжительность : 2 ч. 28 м.
Общий поток : 18,1 Мбит/сек
Дата кодирования : UTC 2022-08-18 06:16:00
Программа кодирования : mkvmerge v4.9.1 ('Ich will') сборка от Jul 11 2011 23:53:15
Библиотека кодирования : libebml v1.2.1 + libmatroska v1.1.1

Видео
Идентификатор : 1
Формат : AVC
Формат/Информация : Advanced Video Codec
Профиль формата : [email protected]
Параметр CABAC формата : Да
Параметр ReFrames формата : 4 кадра
Идентификатор кодека : V_MPEG4/ISO/AVC
Продолжительность : 2 ч. 28 м.
Битрейт : 15,0 Мбит/сек
Ширина : 1920 пикселей
Высота : 2160 пикселей
Соотношение сторон : 0,889
Частота кадров : 23,976 кадра/сек
Цветовое пространство : YUV
Субдискретизация насыщенности : 4:2:0
Битовая глубина : 8 бит
Тип развёртки : Прогрессивная
Бит/(Пиксели*Кадры) : 0.151
Размер потока : 15,6 Гбайт (83%)
Заголовок : Rip by SeRoGa00
Библиотека кодирования : x264 core 157 r2969 d4099dd
Настройки программы : cabac=1 / ref=4 / deblock=1:-3:-3 / analyse=0x3:0x113 / me=umh / subme=10 / psy=1 / psy_rd=1.00:0.15 / mixed_ref=1 / me_range=24 / chroma_me=1 / trellis=2 / 8x8dct=1 / cqm=0 / deadzone=21,11 / fast_pskip=1 / chroma_qp_offset=-3 / threads=12 / lookahead_threads=6 / sliced_threads=0 / nr=0 / decimate=0 / interlaced=0 / bluray_compat=0 / constrained_intra=0 / bframes=10 / b_pyramid=2 / b_adapt=2 / b_bias=0 / direct=3 / weightb=1 / open_gop=0 / weightp=2 / keyint=250 / keyint_min=23 / scenecut=40 / intra_refresh=0 / rc_lookahead=60 / rc=crf / mbtree=1 / crf=16.5 / qcomp=0.60 / qpmin=10 / qpmax=69 / qpstep=4 / vbv_maxrate=40000 / vbv_bufsize=40000 / crf_max=0.0 / nal_hrd=none / filler=0 / ip_ratio=1.40 / aq=1:1.00
Язык : English
Default : Да
Forced : Нет

Аудио #1
Идентификатор : 2
Формат : AC-3
Формат/Информация : Audio Coding 3
Расширение режима : CM (complete main)
Параметр Endianness формата : Big
Идентификатор кодека : A_AC3
Продолжительность : 2 ч. 28 м.
Вид битрейта : Постоянный
Битрейт : 640 Кбит/сек
Каналы : 6 каналов
Расположение каналов : Front: L C R, Side: L R, LFE
Частота : 48,0 КГц
Битовая глубина : 16 бит
Метод сжатия : С потерями
Задержка видео : 28 мс.
Размер потока : 680 Мбайт (4%)
Заголовок : Дубляж
Язык : Russian
Default : Да
Forced : Нет

Аудио #2
Идентификатор : 3
Формат : AC-3
Формат/Информация : Audio Coding 3
Расширение режима : CM (complete main)
Параметр Endianness формата : Big
Идентификатор кодека : A_AC3
Продолжительность : 2 ч. 28 м.
Вид битрейта : Постоянный
Битрейт : 448 Кбит/сек
Каналы : 6 каналов
Расположение каналов : Front: L C R, Side: L R, LFE
Частота : 48,0 КГц
Битовая глубина : 16 бит
Метод сжатия : С потерями
Задержка видео : 28 мс.
Размер потока : 476 Мбайт (2%)
Заголовок : HDRezka
Язык : Russian
Default : Нет
Forced : Нет

Аудио #3
Идентификатор : 4
Формат : AC-3
Формат/Информация : Audio Coding 3
Расширение режима : CM (complete main)
Параметр Endianness формата : Big
Идентификатор кодека : A_AC3
Продолжительность : 2 ч. 28 м.
Вид битрейта : Постоянный
Битрейт : 384 Кбит/сек
Каналы : 6 каналов
Расположение каналов : Front: L C R, Side: L R, LFE
Частота : 48,0 КГц
Битовая глубина : 16 бит
Метод сжатия : С потерями
Задержка видео : 28 мс.
Размер потока : 408 Мбайт (2%)
Заголовок : Jaskier
Язык : Russian
Default : Нет
Forced : Нет

Аудио #4
Идентификатор : 5
Формат : AC-3
Формат/Информация : Audio Coding 3
Расширение режима : CM (complete main)
Параметр Endianness формата : Big
Идентификатор кодека : A_AC3
Продолжительность : 2 ч. 28 м.
Вид битрейта : Постоянный
Битрейт : 640 Кбит/сек
Каналы : 6 каналов
Расположение каналов : Front: L C R, Side: L R, LFE
Частота : 48,0 КГц
Битовая глубина : 16 бит
Метод сжатия : С потерями
Задержка видео : 28 мс.
Размер потока : 680 Мбайт (4%)
Заголовок : Д. Есарев
Язык : Russian
Default : Нет
Forced : Нет

Аудио #5
Идентификатор : 6
Формат : AC-3
Формат/Информация : Audio Coding 3
Расширение режима : CM (complete main)
Параметр Endianness формата : Big
Идентификатор кодека : A_AC3
Продолжительность : 2 ч. 28 м.
Вид битрейта : Постоянный
Битрейт : 640 Кбит/сек
Каналы : 6 каналов
Расположение каналов : Front: L C R, Side: L R, LFE
Частота : 48,0 КГц
Битовая глубина : 16 бит
Метод сжатия : С потерями
Размер потока : 680 Мбайт (4%)
Default : Нет
Forced : Нет

Меню
00:00:00.000 : en:00:00:00.000
00:05:01.635 : en:00:05:01.635
00:11:57.050 : en:00:11:57.050
00:18:37.366 : en:00:18:37.366
00:26:58.909 : en:00:26:58.909
00:37:19.696 : en:00:37:19.696
00:48:00.461 : en:00:48:00.461
00:59:49.252 : en:00:59:49.252
01:04:05.091 : en:01:04:05.091
01:09:49.769 : en:01:09:49.769
01:18:27.912 : en:01:18:27.912
01:28:58.083 : en:01:28:58.083
01:46:36.849 : en:01:46:36.849
02:05:37.780 : en:02:05:37.780
02:13:02.057 : en:02:13:02.057
02:18:53.992 : en:02:18:53.992



Скачать Человек-паук: Нет пути домой в 3Д через торрент https://i5-imageban-ru.translate.goog/out/2022/08/18/05c836193744a11a5b858288dfdc9073.png Скачать, смотреть онлайн Человек-паук: Нет пути домой в 3Д бесплантно в хорошем качестве Описание: Жизнь и репутация Питера Паркера оказываются под угрозой, поскольку Мистерио раскрыл всему миру тайну личности Человека-паука. ... 5 10 1
Торрент: Зарегистрирован [2022-08-18 11:06] · скачан: 13 раз
Статус: √ проверено
Размер: 18.81 GB
Как cкачать? Как скачать Человек-паук: Нет пути домой в 3Д через торрент | UTorrent

28-11-2019 20:33  


Отключить вcю реклaмy на сайте, в т.ч. и в плеере онлайн просмотра!

    Дорогой пользователь! Огромная просьба, поблагодарите релизера, оцените раздачу и оставьте свои комментарий, если Вы скачали Человек-паук: Нет пути домой в 3Д через торрент бесплатно!!
    Комментировать посты могут только пользователи прошедшие не сложную регистрацию
    Показать сообщения:    


    Человек-паук: Нет пути домой в 3Д через торрент
    Скачать бесплатно Человек-паук: Нет пути домой в 3Д
    Человек-паук: Нет пути домой в 3Д скачать торрент
    Человек-паук: Нет пути домой в 3Д смотреть онлайн
    Cкачать фильм Человек-паук: Нет пути домой в 3Д бесплатно
    Человек-паук: Нет пути домой в 3Д скачать торрент в хорошем качестве
    Человек-паук: Нет пути домой в 3Д смотреть онлайн бесплатно в хорошем качестве
    Вы не можете начинать темы
    Вы не можете отвечать на сообщения
    Вы не можете редактировать свои сообщения
    Вы не можете удалять свои сообщения
    Вы не можете голосовать в опросах
    Вы не можете прикреплять файлы к сообщениям
    Вы можете скачивать файлы
    Человек-паук: Нет пути домой в 3Д / Spider-Man: No Way Home 3D [2021, фантастика, боевик, приключения, фэнтези, BDRip, 1080p] OverUnder / Вертикальная стереопара смотреть онлайн, скачать торрент picoco.icu