Доктор Стрэндж

Лицензия

Добыча

Дубляж

Дом дракона

1 сезон

Тор

Дубляж

В эфире

Дубляж

Там, где раки поют

MVO

Властелин колец

1 сезон

Deluxe

pack

Рекомендуем

30

Пиратка

ВАЖНО

ВАЖНО

Ghostwire

Пиратка

jed

RePack

nioh2

RePack

RDR2

RePack

NEED FOR SPEED™ PAYBACK

RePack

скачать торрент

Кинопоиск HD

Острые козырьки 6 сезон

6 сезон

FAR CRY 6

RePack

скачать торрент

Лицензия

скачать торрент

MVO

1

1 сезон

скачать торрент

1 сезон

скачать торрент

Лицензия

  

Чёрная Пантера 3D / Black Panther in 3D (Райан Куглер) [2018 г., Фантастика, боевик, приключения, 3D BDRip 1080p, Дубляж] (IMAX Version) Анаглиф (Дюбуа) от R.G. HD-Films

Чёрная Пантера 3D через торрент pb.wtf

Размер: 8.41 GB | Добавлен: 3 мес. 9 д. назад | Торрент скачан:2 раза
Смотреть онлайн | Скачать   

24-08-2022 12:42 Чёрная Пантера 3D Скачать торрент  

Чёрная Пантера / Black Panther
Год выпуска: 2018
Страна: США
Жанр: Фантастика, боевик, приключения
Продолжительность: 02:14:33
Перевод: Дубляж
Субтитры: Русские (Forced вшитые, full), украинские Forced, английские

Режиссер: Райан Куглер

Бюджет: $200 000 000
Премьера в мире: 29 января 2018

rating

В ролях: Чэдвик Боузмэн, Майкл Б. Джордан, Лупита Нионго, Данай Джекесай Гурира, Мартин Фриман, Энди Серкис, Дэниэл Калуя, Летишиа Райт, Уинстон Дьюк, Стерлинг К. Браун, Анджела Бассетт

Описание: С первого взгляда можно решить, что Ваканда — обычная территория дикой Африки, но это не так. Здесь, в недрах пустынных земель, скрываются залежи уникального металла, способного поглощать вибрацию. Многие пытались добраться до него, разоряя всё на своём пути и принося смерть аборигенам, но каждый раз таинственный дух саванны — Чёрная Пантера — вставал на защиту угнетённых.
Спустя много лет беда снова приходит в Ваканду, и в этот раз враг заручился поддержкой современных технологий. Когда шансов почти не остаётся, Т`Чалла, молодой принц Ваканды, узнаёт, что именно ему предстоит возродить легенду и продолжить вечную борьбу, надев маску Чёрной Пантеры.

Доп. информация: Формат 3D: Анаглиф (Дюбуа)



Качество: 3D BDRip 1080p
Формат: MKV
Видео кодек: H.264
Аудио кодек: AC3
Видео: 1920 x 1080 (16:9), 7475 kbps, 23,976 fps, 0.150 bpp
Аудио#1: Русский / AC3 / 48 KHz / 5.1 ch / 640 Kbps (Дубляж - BD 3D EUR)
Аудио#2: Украинский / AC3 / 48 KHz / 2 ch / 192 Kbps (Дубляж - Line) [моно] (спасибо Hurtom!)
Аудио#3: Английский / AC3 / 48 KHz / 5.1 ch / 640 Kbps (Original - BD 3D EUR)
Релиз от: Автор рипа: slaventi-69
x264 [info]: using cpu capabilities: MMX2 SSE2Fast SSSE3 SSE4.2 AVX AVX2 FMA3 LZCNT BMI1 BMI2
x264 [info]: profile High, level 4.1
x264 [info]: frame I:1904 Avg QP:12.67 size:169991
x264 [info]: frame P:55224 Avg QP:14.16 size: 71593
x264 [info]: frame B:136436 Avg QP:15.93 size: 23942
x264 [info]: consecutive B-frames: 4.9% 5.3% 16.7% 35.1% 38.0%


Общее
Уникальный идентификатор : 169227496481554316570423876738622852331 (0x7F5007C100EB6F68F86053DFB6528CEB)
Полное имя : G:\60 FPS\Black.Panther.(2018).3D.(Anaglyph_Dubois).(IMAX).mkv
Формат : Matroska
Версия формата : Version 4
Размер файла : 8,41 Гбайт
Продолжительность : 2 ч. 14 м.
Общий поток : 8950 Кбит/сек
Название фильма : Чёрная Пантера / Black Panther (2018) in 3D (Anaglyph_Dubois) | IMAX Version
Дата кодирования : UTC 2022-08-24 10:39:49
Программа кодирования : mkvmerge v69.0.0 ('Day And Age') 64-bit
Библиотека кодирования : libebml v1.4.2 + libmatroska v1.6.4

Видео
Идентификатор : 1
Формат : AVC
Формат/Информация : Advanced Video Codec
Профиль формата : [email protected]
MultiView_Count : 2
MultiView_Layout : Anaglyph (cyan/red)
Настройки формата : CABAC / 4 Ref Frames
Параметр CABAC формата : Да
Параметр RefFrames формата : 4 кадра
Идентификатор кодека : V_MPEG4/ISO/AVC
Продолжительность : 2 ч. 14 м.
Битрейт : 7475 Кбит/сек
Ширина : 1920 пикселей
Высота : 1080 пикселей
Соотношение сторон : 16:9
Режим частоты кадров : Постоянный
Частота кадров : 23,976 (24000/1001) кадра/сек
Цветовое пространство : YUV
Субдискретизация насыщенности : 4:2:0
Битовая глубина : 8 бит
Тип развёртки : Прогрессивная
Бит/(Пиксели*Кадры) : 0.150
Размер потока : 7,03 Гбайт (84%)
Заголовок : slaventi-69 ( R.G. HD-Films ) 3Д (Anaglyph_Dubois)
Библиотека кодирования : x264 core 130 r2273 b3065e6
Настройки программы : cabac=1 / ref=4 / deblock=1:-2:-2 / analyse=0x3:0x133 / me=umh / subme=9 / psy=1 / psy_rd=1.00:0.00 / mixed_ref=1 / me_range=32 / chroma_me=1 / trellis=2 / 8x8dct=1 / cqm=0 / deadzone=21,11 / fast_pskip=0 / chroma_qp_offset=-2 / threads=8 / lookahead_threads=4 / sliced_threads=0 / nr=0 / decimate=1 / interlaced=0 / bluray_compat=0 / constrained_intra=0 / bframes=4 / b_pyramid=2 / b_adapt=2 / b_bias=0 / direct=1 / weightb=1 / open_gop=0 / weightp=2 / keyint=600 / keyint_min=23 / scenecut=40 / intra_refresh=0 / rc=crf / mbtree=0 / crf=19.0 / qcomp=0.60 / qpmin=0 / qpmax=69 / qpstep=4 / ip_ratio=1.40 / pb_ratio=1.30 / aq=1:1.00
Язык : English
Default : Да
Forced : Нет

Аудио #1
Идентификатор : 2
Формат : AC-3
Формат/Информация : Audio Coding 3
Коммерческое название : Dolby Digital
Идентификатор кодека : A_AC3
Продолжительность : 2 ч. 14 м.
Вид битрейта : Постоянный
Битрейт : 640 Кбит/сек
Каналы : 6 каналов
Channel layout : L R C LFE Ls Rs
Частота : 48,0 КГц
Частота кадров : 31,250 кадров/сек (1536 SPF)
Битовая глубина : 16 бит
Метод сжатия : С потерями
Размер потока : 616 Мбайт (7%)
Заголовок : Дубляж - BD 3D EUR
Язык : Russian
ServiceKind/String : Complete Main
Default : Да
Forced : Нет

Аудио #2
Идентификатор : 3
Формат : AC-3
Формат/Информация : Audio Coding 3
Коммерческое название : Dolby Digital
Идентификатор кодека : A_AC3
Продолжительность : 2 ч. 14 м.
Вид битрейта : Постоянный
Битрейт : 192 Кбит/сек
Каналы : 2 канала
Channel layout : L R
Частота : 48,0 КГц
Частота кадров : 31,250 кадров/сек (1536 SPF)
Битовая глубина : 16 бит
Метод сжатия : С потерями
Размер потока : 185 Мбайт (2%)
Заголовок : Дубляж - Line [моно]
Язык : Ukrainian
ServiceKind/String : Complete Main
Default : Нет
Forced : Нет

Аудио #3
Идентификатор : 4
Формат : AC-3
Формат/Информация : Audio Coding 3
Коммерческое название : Dolby Digital
Идентификатор кодека : A_AC3
Продолжительность : 2 ч. 14 м.
Вид битрейта : Постоянный
Битрейт : 640 Кбит/сек
Каналы : 6 каналов
Channel layout : L R C LFE Ls Rs
Частота : 48,0 КГц
Частота кадров : 31,250 кадров/сек (1536 SPF)
Битовая глубина : 16 бит
Метод сжатия : С потерями
Размер потока : 616 Мбайт (7%)
Заголовок : Original - BD 3D EUR
Язык : English
ServiceKind/String : Complete Main
Default : Нет
Forced : Нет

Текст #1
Идентификатор : 5
Формат : UTF-8
Идентификатор кодека : S_TEXT/UTF8
Идентификатор кодека/Информация : UTF-8 Plain Text
Продолжительность : 2 ч. 14 м.
Битрейт : 64 бит/сек
ElementCount : 1460
Размер потока : 63,8 Кбайт (0%)
Заголовок : Полные
Язык : Russian
Default : Нет
Forced : Нет

Текст #2
Идентификатор : 6
Формат : UTF-8
Идентификатор кодека : S_TEXT/UTF8
Идентификатор кодека/Информация : UTF-8 Plain Text
Продолжительность : 2 ч. 14 м.
Битрейт : 78 бит/сек
ElementCount : 1849
Размер потока : 77,3 Кбайт (0%)
Заголовок : SDH
Язык : Russian
Default : Нет
Forced : Нет

Текст #3
Идентификатор : 7
Формат : UTF-8
Идентификатор кодека : S_TEXT/UTF8
Идентификатор кодека/Информация : UTF-8 Plain Text
Продолжительность : 2 ч. 10 м.
Битрейт : 2 бит/сек
ElementCount : 77
Размер потока : 2,34 Кбайт (0%)
Заголовок : Форсированные
Язык : Ukrainian
Default : Нет
Forced : Нет

Текст #4
Идентификатор : 8
Формат : UTF-8
Идентификатор кодека : S_TEXT/UTF8
Идентификатор кодека/Информация : UTF-8 Plain Text
Продолжительность : 2 ч. 10 м.
Битрейт : 1 бит/сек
ElementCount : 61
Размер потока : 1,03 Кбайт (0%)
Заголовок : Forced
Язык : English
Default : Нет
Forced : Нет

Текст #5
Идентификатор : 9
Формат : UTF-8
Идентификатор кодека : S_TEXT/UTF8
Идентификатор кодека/Информация : UTF-8 Plain Text
Продолжительность : 2 ч. 14 м.
Битрейт : 41 бит/сек
ElementCount : 1581
Размер потока : 40,4 Кбайт (0%)
Заголовок : Full
Язык : English
Default : Нет
Forced : Нет

Текст #6
Идентификатор : 10
Формат : UTF-8
Идентификатор кодека : S_TEXT/UTF8
Идентификатор кодека/Информация : UTF-8 Plain Text
Продолжительность : 2 ч. 14 м.
Битрейт : 47 бит/сек
ElementCount : 1835
Размер потока : 47,1 Кбайт (0%)
Заголовок : SDH
Язык : English
Default : Нет
Forced : Нет

Меню
00:00:00.000 : : 1. История Ваканды / The Story of Home
00:06:56.291 : : 2. Наследование трона / Succession to the Throne
00:12:02.805 : : 3. "Теперь ты король" / "Time to be King"
00:19:12.360 : : 4. "Да начнётся поединок!" / "Let the Challenge Begin"
00:28:32.961 : : 5. Измерение предков / The Ancestral Plane
00:33:11.698 : : 6. Экстрадиция / Extradition
00:40:57.497 : : 7. Миссия в казино / Casino Mission
00:48:34.036 : : 8. Погоня в Пусане / Busan Car Chase
00:53:46.098 : : 9. Допрос / Interrogation
01:01:57.339 : : 10. Жертвы / Sacrifices
01:08:33.026 : : 11. Права крови / Blood Rights
01:16:46.769 : : 12. Ритуальный поединок / Ritual Combat
01:22:24.022 : : 13. "Сожгите всё!" / "Burn It All"
01:31:21.434 : : 14. Земля Джабари / Jabariland
01:41:15.361 : : 15. Две пантеры / Two Panthers
01:50:56.483 : : 16. Битва за Ваканду / The Battle for Wakanda
01:59:16.941 : : 17. Новая Ваканда / A New Wakanda
02:02:43.648 : : 18. Финальные титры / End Credits

Просьба к переливающим на другие сайты, в оформлении указывайте пожалуйста авторство группы R.G. HD-Films



Скачать Чёрная Пантера 3D через торрент https://i120.fastpic.org/big/2022/0824/41/654a2536b432fe9bef31f872c10cd541.jpg Скачать, смотреть онлайн Чёрная Пантера 3D бесплантно в хорошем качестве Описание: С первого взгляда можно решить, что Ваканда — обычная территория дикой Африки, но это не так. Здесь, в недрах пустынных земель, ... 9.5 10 2
Торрент: Зарегистрирован [2022-08-24 12:42] · скачан: 2 раз
Статус: √ проверено
Размер: 8.41 GB
Как cкачать? Как скачать Чёрная Пантера 3D через торрент | UTorrent

% Раздел Тема Автор DL S | L
Фильмы (Blu-ray, BD-Remux, HDDVD) [ 44.3 GB ] Чёрная Пантера / Black Panther | Лицензия | 1080p bober100 Скачать
1 | 0
3D Фильмы [ 9.84 GB ] Чёрная Пантера в 3Д / Black Panther 3D | | 1080p sheker187 Скачать
1 | 0
Фильмы (Blu-ray, BD-Remux, HDDVD) [ 38.14 GB ] Чёрная Пантера / Black Panther | Лицензия | BD Remux 1080p bober100 Скачать
1 | 0
3D Фильмы [ 15.43 GB ] Чёрная Пантера в 3Д / Black Panther 3D | | 1080p serega768 Скачать
1 | 0

28-11-2019 20:33  


Отключить вcю реклaмy на сайте, в т.ч. и в плеере онлайн просмотра!

    Дорогой пользователь! Огромная просьба, поблагодарите релизера, оцените раздачу и оставьте свои комментарий, если Вы скачали Чёрная Пантера 3D через торрент бесплатно!!
    Комментировать посты могут только пользователи прошедшие не сложную регистрацию
    Показать сообщения:    


    Чёрная Пантера 3D через торрент
    Скачать бесплатно Чёрная Пантера 3D
    Чёрная Пантера 3D скачать торрент
    Чёрная Пантера 3D смотреть онлайн
    Cкачать фильм Чёрная Пантера 3D бесплатно
    Чёрная Пантера 3D скачать торрент в хорошем качестве
    Чёрная Пантера 3D смотреть онлайн бесплатно в хорошем качестве
    Вы не можете начинать темы
    Вы не можете отвечать на сообщения
    Вы не можете редактировать свои сообщения
    Вы не можете удалять свои сообщения
    Вы не можете голосовать в опросах
    Вы не можете прикреплять файлы к сообщениям
    Вы можете скачивать файлы
    Чёрная Пантера 3D / Black Panther in 3D [2018 г., Фантастика, боевик, приключения, 3D BDRip 1080p, Дубляж] Анаглиф от R.G. HD-Films смотреть онлайн, скачать торрент picoco.icu