Доктор Стрэндж

Лицензия

Добыча

Дубляж

Уэнсдэй

1 сезон

Тор

Дубляж

В эфире

Дубляж

Там, где раки поют

MVO

Властелин колец

1 сезон

Deluxe

pack

Рекомендуем

30

Пиратка

ВАЖНО

ВАЖНО

Ghostwire

Пиратка

jed

RePack

nioh2

RePack

RDR2

RePack

NEED FOR SPEED™ PAYBACK

RePack

скачать торрент

Кинопоиск HD

Острые козырьки 6 сезон

6 сезон

FAR CRY 6

RePack

скачать торрент

Лицензия

скачать торрент

MVO

1

1 сезон

скачать торрент

1 сезон

скачать торрент

Лицензия

  

Книга джунглей 3D / The Jungle Book in 3D (Джон Фавро) [2016 г., Фэнтези, Драма, Приключения, Семейный, 3D BDRip 1080p, Дубляж] Анаглиф (Дюбуа) от R.G. HD-Films

Книга джунглей 3D через торрент pb.wtf

Размер: 6.63 GB | Добавлен: 3 мес. 9 д. назад | Торрент скачан:1 раз
Смотреть онлайн | Скачать   

27-08-2022 08:26 Книга джунглей 3D Скачать торрент  

Книга джунглей / The Jungle Book
Год выпуска: 2016
Страна: Великобритания, США
Жанр: Фэнтези, Драма, Приключения, Семейный
Продолжительность: 01:45:59
Перевод: Дубляж
Субтитры: Русские (Forced вшитые, full), украинские, английские

Режиссер: Джон Фавро

Бюджет: $175 000 000
Премьера в мире: 4 апреля 2016

rating

В ролях: Нил Сети, Билл Мюррэй, Бен Кингсли, Идрис Эльба, Лупита Нионго, Скарлетт Йоханссон, Джанкарло Эспозито, Кристофер Уокен, Гарри Шендлинг, Брайтон Роуз, Эмджей Энтони, Макс Фавро, Хлоя Хехтер, Эшер Блинкофф, Нокс Ганьон, Саша Шрайбер, Кай Шрайбер, Джон Фавро, Сэм Рэйми, Расселл Питерс

Описание: Мaугли, человеческий детеныш, был принят в волчью стаю после того, как Багира нашел его младенцем в лесу. Но непримиримая борьба с опасным и страшным тигром Шерхaном вынуждает Мaугли покинуть волчью стаю и отправиться в деревню к людям. На пути мальчика ждут удивительные открытия и захватывающие приключения с пантерой Багирой, медведем Бaлу, питоном Каа, царем обезьян Луи и другими обитателями дремучих джунглей.

Доп. информация:Формат 3D: Анаглиф (Дюбуа)



Качество: 3D BDRip 1080p
Формат: MKV
Видео кодек: H.264
Аудио кодек: AC3
Видео: 1920 x 1080 (16:9), 7034 kbps, 23,976 fps, 0.141 bpp
Аудио#1: Русский / AC3 / 48 KHz / 5.1 ch / 640 Kbps (Дубляж - BD CEE)
Аудио#2: Украинский / AC3 / 48 KHz / 5.1 ch / 640 Kbps (Дубляж - Disney / Buena Vista)
Аудио#3: Английский / AC3 / 48 KHz / 5.1 ch / 640 Kbps (Original - BD 3D)
Релиз от: Автор рипа: slaventi-69
x264 [info]: using cpu capabilities: MMX2 SSE2Fast SSSE3 SSE4.2 AVX AVX2 FMA3 LZCNT BMI1 BMI2
x264 [info]: profile High, level 4.1
x264 [info]: frame I:1096 Avg QP:19.33 size:210483
x264 [info]: frame P:41966 Avg QP:20.75 size: 68761
x264 [info]: frame B:109414 Avg QP:22.79 size: 22624
x264 [info]: consecutive B-frames: 3.9% 3.9% 14.1% 41.9% 36.2%


Общее
Уникальный идентификатор : 294772451408834974792650127393788952467 (0xDDC31BEDA435B3381980737D71AA7F93)
Полное имя : G:\60 FPS\The.Jungle.Book.(2016).3D.(Anaglyph_Dubois).mkv
Формат : Matroska
Версия формата : Version 4
Размер файла : 6,63 Гбайт
Продолжительность : 1 ч. 45 м.
Общий поток : 8956 Кбит/сек
Название фильма : Книга джунглей / The Jungle Book (2016) в 3D (Anaglyph_Dubois)
Дата кодирования : UTC 2022-08-27 07:52:54
Программа кодирования : mkvmerge v69.0.0 ('Day And Age') 64-bit
Библиотека кодирования : libebml v1.4.2 + libmatroska v1.6.4

Видео
Идентификатор : 1
Формат : AVC
Формат/Информация : Advanced Video Codec
Профиль формата : [email protected]
Настройки формата : CABAC / 4 Ref Frames
Параметр CABAC формата : Да
Параметр RefFrames формата : 4 кадра
Идентификатор кодека : V_MPEG4/ISO/AVC
Продолжительность : 1 ч. 45 м.
Битрейт : 7034 Кбит/сек
Ширина : 1920 пикселей
Высота : 1080 пикселей
Соотношение сторон : 16:9
Режим частоты кадров : Постоянный
Частота кадров : 23,976 (24000/1001) кадра/сек
Цветовое пространство : YUV
Субдискретизация насыщенности : 4:2:0
Битовая глубина : 8 бит
Тип развёртки : Прогрессивная
Бит/(Пиксели*Кадры) : 0.141
Размер потока : 5,21 Гбайт (79%)
Заголовок : slaventi-69 ( R.G. HD-Films ) 3D (Anaglyph_Dubois)
Библиотека кодирования : x264 core 130 r2273 b3065e6
Настройки программы : cabac=1 / ref=4 / deblock=1:-1:-1 / analyse=0x3:0x133 / me=umh / subme=9 / psy=1 / psy_rd=1.00:0.00 / mixed_ref=1 / me_range=32 / chroma_me=1 / trellis=2 / 8x8dct=1 / cqm=0 / deadzone=21,11 / fast_pskip=0 / chroma_qp_offset=-2 / threads=10 / lookahead_threads=4 / sliced_threads=0 / nr=0 / decimate=1 / interlaced=0 / bluray_compat=0 / constrained_intra=0 / bframes=4 / b_pyramid=2 / b_adapt=2 / b_bias=0 / direct=1 / weightb=1 / open_gop=0 / weightp=2 / keyint=600 / keyint_min=23 / scenecut=40 / intra_refresh=0 / rc=crf / mbtree=0 / crf=22.0 / qcomp=0.60 / qpmin=0 / qpmax=69 / qpstep=4 / ip_ratio=1.40 / pb_ratio=1.30 / aq=1:1.00
Язык : English
Default : Да
Forced : Нет

Аудио #1
Идентификатор : 2
Формат : AC-3
Формат/Информация : Audio Coding 3
Коммерческое название : Dolby Digital
Идентификатор кодека : A_AC3
Продолжительность : 1 ч. 45 м.
Вид битрейта : Постоянный
Битрейт : 640 Кбит/сек
Каналы : 6 каналов
Channel layout : L R C LFE Ls Rs
Частота : 48,0 КГц
Частота кадров : 31,250 кадров/сек (1536 SPF)
Битовая глубина : 16 бит
Метод сжатия : С потерями
Размер потока : 485 Мбайт (7%)
Заголовок : Дубляж - BD CEE
Язык : Russian
ServiceKind/String : Complete Main
Default : Да
Forced : Нет

Аудио #2
Идентификатор : 3
Формат : AC-3
Формат/Информация : Audio Coding 3
Коммерческое название : Dolby Digital
Идентификатор кодека : A_AC3
Продолжительность : 1 ч. 45 м.
Вид битрейта : Постоянный
Битрейт : 640 Кбит/сек
Каналы : 6 каналов
Channel layout : L R C LFE Ls Rs
Частота : 48,0 КГц
Частота кадров : 31,250 кадров/сек (1536 SPF)
Битовая глубина : 16 бит
Метод сжатия : С потерями
Размер потока : 485 Мбайт (7%)
Заголовок : Дубляж - Disney / Buena Vista
Язык : Ukrainian
ServiceKind/String : Complete Main
Default : Нет
Forced : Нет

Аудио #3
Идентификатор : 4
Формат : AC-3
Формат/Информация : Audio Coding 3
Коммерческое название : Dolby Digital
Идентификатор кодека : A_AC3
Продолжительность : 1 ч. 45 м.
Вид битрейта : Постоянный
Битрейт : 640 Кбит/сек
Каналы : 6 каналов
Channel layout : L R C LFE Ls Rs
Частота : 48,0 КГц
Частота кадров : 31,250 кадров/сек (1536 SPF)
Битовая глубина : 16 бит
Метод сжатия : С потерями
Размер потока : 485 Мбайт (7%)
Заголовок : Original
Язык : English
ServiceKind/String : Complete Main
Default : Нет
Forced : Нет

Текст #1
Идентификатор : 5
Формат : UTF-8
Идентификатор кодека : S_TEXT/UTF8
Идентификатор кодека/Информация : UTF-8 Plain Text
Продолжительность : 1 ч. 44 м.
Битрейт : 60 бит/сек
ElementCount : 1108
Размер потока : 46,2 Кбайт (0%)
Заголовок : Полные
Язык : Russian
Default : Нет
Forced : Нет

Текст #2
Идентификатор : 6
Формат : UTF-8
Идентификатор кодека : S_TEXT/UTF8
Идентификатор кодека/Информация : UTF-8 Plain Text
Продолжительность : 1 ч. 44 м.
Битрейт : 59 бит/сек
ElementCount : 1107
Размер потока : 45,5 Кбайт (0%)
Заголовок : Полные
Язык : Ukrainian
Default : Нет
Forced : Нет

Текст #3
Идентификатор : 7
Формат : UTF-8
Идентификатор кодека : S_TEXT/UTF8
Идентификатор кодека/Информация : UTF-8 Plain Text
Продолжительность : 1 ч. 44 м.
Битрейт : 44 бит/сек
ElementCount : 1218
Размер потока : 34,1 Кбайт (0%)
Заголовок : Full
Язык : English
Default : Нет
Forced : Нет

Текст #4
Идентификатор : 8
Формат : UTF-8
Идентификатор кодека : S_TEXT/UTF8
Идентификатор кодека/Информация : UTF-8 Plain Text
Продолжительность : 1 ч. 44 м.
Битрейт : 50 бит/сек
ElementCount : 1410
Размер потока : 38,4 Кбайт (0%)
Заголовок : SDH
Язык : English
Default : Нет
Forced : Нет

Меню
00:00:00.000 : : 1. Opening Title
00:00:48.213 : : 2. Running with Wolves
00:05:15.314 : : 3. Water Truce
00:09:02.456 : : 4. A Warning
00:12:42.177 : : 5. Mowgli Leaves the Pack
00:16:34.451 : : 6. Shere Khan Attacks
00:21:20.028 : : 7. Akela's Plea
00:27:15.133 : : 8. Kaa
00:35:04.143 : : 9. Baloo's Honey
00:43:21.724 : : 10. The Mowgli Way
00:48:05.132 : : 11. "The Bare Necessities"
00:53:29.246 : : 12. Saving the Elephant
00:58:03.271 : : 13. Monkey Abduction
01:05:46.442 : : 14. "I Wan'na Be Like You"
01:10:35.520 : : 15. Monkey Escape
01:17:01.323 : : 16. The Red Flower
01:20:48.926 : : 17. The Law of the Jungle
01:24:46.537 : : 18. The Final Battle
01:30:32.969 : : 19. Celebration
01:35:53.203 : : 20. End Credits

Просьба к переливающим на другие сайты, в оформлении указывайте пожалуйста авторство группы R.G. HD-Films



Скачать Книга джунглей 3D через торрент https://i.postimg.cc/PrhhT7pr/c0ab3277929e466331443506686b5deb.png Скачать, смотреть онлайн Книга джунглей 3D бесплантно в хорошем качестве Описание: Мaугли, человеческий детеныш, был принят в волчью стаю после того, как Багира нашел его младенцем в лесу. Но непримиримая борьба ... 5 10 1
Info! Золотая раздача, скачанное не засчитывается.
Торрент: Зарегистрирован [2022-08-27 08:26] · скачан: 1 раз
Статус: √ проверено
Размер: 6.63 GB
Как cкачать? Как скачать Книга джунглей 3D через торрент | UTorrent

% Раздел Тема Автор DL S | L
3D Фильмы [ 15.55 GB ] Книга джунглей 3Д / The Jungle Book 3D | Лицензия | 1080p bober100 Скачать
3 | 0
3D Фильмы [ 21.93 GB ] Книга джунглей в 3Д / The Jungle Book 3D | | 1080p serega768 Скачать
1 | 0

28-11-2019 20:33  


Отключить вcю реклaмy на сайте, в т.ч. и в плеере онлайн просмотра!

    Дорогой пользователь! Огромная просьба, поблагодарите релизера, оцените раздачу и оставьте свои комментарий, если Вы скачали Книга джунглей 3D через торрент бесплатно!!
    Комментировать посты могут только пользователи прошедшие не сложную регистрацию
    Показать сообщения:    


    Книга джунглей 3D через торрент
    Скачать бесплатно Книга джунглей 3D
    Книга джунглей 3D скачать торрент
    Книга джунглей 3D смотреть онлайн
    Cкачать фильм Книга джунглей 3D бесплатно
    Книга джунглей 3D скачать торрент в хорошем качестве
    Книга джунглей 3D смотреть онлайн бесплатно в хорошем качестве
    Вы не можете начинать темы
    Вы не можете отвечать на сообщения
    Вы не можете редактировать свои сообщения
    Вы не можете удалять свои сообщения
    Вы не можете голосовать в опросах
    Вы не можете прикреплять файлы к сообщениям
    Вы можете скачивать файлы
    Книга джунглей 3D / The Jungle Book in 3D [2016 г., Фэнтези, Драма, Приключения, Семейный, 3D BDRip 1080p, Дубляж] Анаглиф от R.G. HD-Films смотреть онлайн, скачать торрент picoco.icu