Доктор Стрэндж

Лицензия

Добыча

Дубляж

Уэнсдэй

1 сезон

Тор

Дубляж

В эфире

Дубляж

Там, где раки поют

MVO

Властелин колец

1 сезон

Deluxe

pack

Рекомендуем

30

Пиратка

ВАЖНО

ВАЖНО

Ghostwire

Пиратка

jed

RePack

nioh2

RePack

RDR2

RePack

NEED FOR SPEED™ PAYBACK

RePack

скачать торрент

Кинопоиск HD

Острые козырьки 6 сезон

6 сезон

FAR CRY 6

RePack

скачать торрент

Лицензия

скачать торрент

MVO

1

1 сезон

скачать торрент

1 сезон

скачать торрент

Лицензия

  

Миньоны: Грювитация / Minions: The rise of Gru (Кайл Балда, Брэд Эблесон, Джонатан Дель Валь ) [2022, Мультфильм, фантастика, комедия, криминал, приключения, семейный, HDRip-AVC] MVO [Jaskier, TVShows] от ExKinoRay

Миньоны: Грювитация через торрент pb.wtf

Раздают: 10 [ 4 KB/s ]
Размер: 2.13 GB | Добавлен: 3 мес. 7 д. назад | Торрент скачан:326 раз
Смотреть онлайн | Скачать   

28-08-2022 15:06 Миньоны: Грювитация Скачать торрент  


Миньоны: Грювитация / Minions: The rise of Gru
Название: Миньоны: Грювитация
Оригинальное название: Minions: The rise of Gru
Год выхода: 2022
Жанр: Мультфильм, фантастика, комедия, криминал, приключения, семейный
Режиссер: Кайл Балда, Брэд Эблесон, Джонатан Дель Валь

В ролях: Стив Карелл, Пьер Коффан, Тараджи П. Хенсон, Жан-Клод Ван Дамм, Мишель Йео, Дольф Лундгрен, Люси Лоулесс, Дэнни Трехо, Алан Аркин, Джули Эндрюс

Описание: Миллион лет миньоны искали самого великого и ужасного предводителя, пока не встретили ЕГО. Знакомьтесь — Грю. Пусть он еще очень молод, но у него в планах по-настоящему гадкие дела, которые заставят планету содрогнуться.

rating

Страна: США
Студия: Illumination, Universal Pictures
Продолжительность: 01:27:25
Перевод: Профессиональный (многоголосый, закадровый) - Jaskier, TVShows



Информация о файле:
Кодек: AVC
Формат: MKV
Качество: HDRip-AVC
Видео: MPEG-4 AVC, 1024x428, 23.976 fps, 2400 kbps
Аудио RU: AC3, 6 ch, 48 kHz, 448 kbps | Jaskier
Аудио RU: AC3, 2 ch, 48 kHz, 192 kbps | TVShows
Аудио EN: AC3, 6 ch, 48 kHz, 448 kbps
Субтитры: Русские (Forced, full), английские



x264 info: frame I:1058 Avg QP:17.10 size: 85609
x264 info: frame P:32225 Avg QP:20.26 size: 23941
x264 info: frame B:92479 Avg QP:21.07 size: 7683
General
Unique ID : 214897815495784011496103125280849019154 (0xA1ABD054313E242B6EEEC327CEFE4112)
Complete name : D:uTorrentРипы wolf1245Minions.The rise of Gru.2022.MVO.Jaskier.TVShows.X264.HDRip-AVC.[wolf1245.ExKinoRay].mkv
Format : Matroska
Format version : Version 4
File size : 2.13 GiB
Duration : 1 h 27 min
Overall bit rate : 3 486 kb/s
Movie name : Minions.The rise of Gru.2022.MVO.Jaskier.TVShows.X264.HDRip-AVC.[wolf1245.ExKinoRay]
Encoded date : UTC 2022-08-28 14:53:53
Writing application : mkvmerge v70.0.0 ('Caught A Lite Sneeze') 64-bit
Writing library : libebml v1.4.2 + libmatroska v1.6.4
Video
ID : 1
Format : AVC
Format/Info : Advanced Video Codec
Format profile : [email protected]
Format settings : CABAC / 12 Ref Frames
Format settings, CABAC : Yes
Format settings, Reference frames : 12 frames
Codec ID : V_MPEG4/ISO/AVC
Duration : 1 h 27 min
Bit rate : 2 400 kb/s
Width : 1 024 pixels
Height : 428 pixels
Display aspect ratio : 2.40:1
Frame rate mode : Constant
Frame rate : 23.976 (24000/1001) FPS
Color space : YUV
Chroma subsampling : 4:2:0
Bit depth : 8 bits
Scan type : Progressive
Bits/(Pixel*Frame) : 0.228
Stream size : 1.46 GiB (69%)
Title : -=[wolf1245.ExKinoRay]=-
Writing library : x264 core 163 r3060 5db6aa6
Encoding settings : cabac=1 / ref=12 / deblock=1:-2:-2 / analyse=0x3:0x133 / me=umh / subme=10 / psy=1 / psy_rd=1.00:0.15 / mixed_ref=1 / me_range=32 / chroma_me=1 / trellis=2 / 8x8dct=1 / cqm=0 / deadzone=22,11 / fast_pskip=1 / chroma_qp_offset=-3 / threads=10 / lookahead_threads=2 / sliced_threads=0 / nr=0 / decimate=0 / interlaced=0 / bluray_compat=0 / constrained_intra=0 / bframes=12 / b_pyramid=2 / b_adapt=2 / b_bias=0 / direct=3 / weightb=1 / open_gop=0 / weightp=2 / keyint=240 / keyint_min=24 / scenecut=40 / intra_refresh=0 / rc_lookahead=150 / rc=2pass / mbtree=0 / bitrate=2400 / ratetol=1.0 / qcomp=0.60 / qpmin=0 / qpmax=69 / qpstep=4 / cplxblur=20.0 / qblur=0.5 / vbv_maxrate=50000 / vbv_bufsize=62500 / nal_hrd=none / filler=0 / ip_ratio=1.37 / pb_ratio=1.27 / aq=1:1.10
Language : English
Default : Yes
Forced : No
Color range : Limited
Color primaries : BT.709
Matrix coefficients : BT.709
Audio #1
ID : 2
Format : AC-3
Format/Info : Audio Coding 3
Commercial name : Dolby Digital
Codec ID : A_AC3
Duration : 1 h 27 min
Bit rate mode : Constant
Bit rate : 448 kb/s
Channel(s) : 6 channels
Channel layout : L R C LFE Ls Rs
Sampling rate : 48.0 kHz
Frame rate : 31.250 FPS (1536 SPF)
Compression mode : Lossy
Stream size : 280 MiB (13%)
Title : MVO | Jaskier | RUS
Language : Russian
Service kind : Complete Main
Default : Yes
Forced : Yes
Audio #2
ID : 3
Format : AC-3
Format/Info : Audio Coding 3
Commercial name : Dolby Digital
Codec ID : A_AC3
Duration : 1 h 27 min
Bit rate mode : Constant
Bit rate : 192 kb/s
Channel(s) : 2 channels
Channel layout : L R
Sampling rate : 48.0 kHz
Frame rate : 31.250 FPS (1536 SPF)
Compression mode : Lossy
Stream size : 120 MiB (6%)
Title : MVO | TVShows | RUS
Language : Russian
Service kind : Complete Main
Default : No
Forced : No
Audio #3
ID : 4
Format : AC-3
Format/Info : Audio Coding 3
Commercial name : Dolby Digital
Codec ID : A_AC3
Duration : 1 h 27 min
Bit rate mode : Constant
Bit rate : 448 kb/s
Channel(s) : 6 channels
Channel layout : L R C LFE Ls Rs
Sampling rate : 48.0 kHz
Frame rate : 31.250 FPS (1536 SPF)
Compression mode : Lossy
Stream size : 280 MiB (13%)
Title : Original | ENG
Language : English
Service kind : Complete Main
Default : No
Forced : No
Text #1
ID : 5
Format : UTF-8
Codec ID : S_TEXT/UTF8
Codec ID/Info : UTF-8 Plain Text
Duration : 1 h 12 min
Bit rate : 3 b/s
Count of elements : 20
Stream size : 1.63 KiB (0%)
Title : Forced
Language : Russian
Default : No
Forced : No
Text #2
ID : 6
Format : UTF-8
Codec ID : S_TEXT/UTF8
Codec ID/Info : UTF-8 Plain Text
Duration : 1 h 19 min
Bit rate : 59 b/s
Count of elements : 814
Stream size : 34.6 KiB (0%)
Title : Full
Language : Russian
Default : No
Forced : No
Text #3
ID : 7
Format : UTF-8
Codec ID : S_TEXT/UTF8
Codec ID/Info : UTF-8 Plain Text
Duration : 1 h 26 min
Bit rate : 44 b/s
Count of elements : 1238
Stream size : 28.1 KiB (0%)
Title : Full
Language : English
Default : No
Forced : No
Text #4
ID : 8
Format : UTF-8
Codec ID : S_TEXT/UTF8
Codec ID/Info : UTF-8 Plain Text
Duration : 1 h 27 min
Bit rate : 69 b/s
Count of elements : 1892
Stream size : 44.5 KiB (0%)
Title : SDH
Language : English
Default : No
Forced : No
Menu
00:00:00.000 : :Chapter 01
00:02:21.224 : :Chapter 02
00:07:37.749 : :Chapter 03
00:12:47.350 : :Chapter 04
00:17:50.194 : :Chapter 05
00:20:45.995 : :Chapter 06
00:26:20.204 : :Chapter 07
00:29:01.323 : :Chapter 08
00:33:33.094 : :Chapter 09
00:38:49.118 : :Chapter 10
00:43:23.434 : :Chapter 11
00:48:59.436 : :Chapter 12
00:50:26.732 : :Chapter 13
00:55:39.294 : :Chapter 14
01:00:00.639 : :Chapter 15
01:05:32.720 : :Chapter 16
01:07:40.640 : :Chapter 17
01:10:57.795 : :Chapter 18
01:16:25.831 : :Chapter 19
01:19:30.766 : :Chapter 20
Релиз от:
Автор релиза:



Скачать Миньоны: Грювитация через торрент http://i120.fastpic.org/big/2022/0828/a0/5b07d42dbe8a0c4ab1e77c37e2df5aa0.jpg Скачать, смотреть онлайн Миньоны: Грювитация бесплантно в хорошем качестве Описание: Миллион лет миньоны искали самого великого и ужасного предводителя, пока не встретили ЕГО. Знакомьтесь — Грю. Пусть он еще ... 10 10 4
Торрент: Зарегистрирован [2022-08-28 15:06] · скачан: 326 раз
Статус: √ проверено
Размер: 2.13 GB
Как cкачать? Как скачать Миньоны: Грювитация через торрент | UTorrent

% Раздел Тема Автор DL S | L
Зарубежные Мультфильмы (BDRip 1080p, 720p, Blu-ray, BD-Remux) [ 3.96 GB ] Миньоны: Грювитация / Minions: The Rise of Gru | Jaskier | 720p bober100 Скачать
25 | 0
Мультфильмы (48-60 fps) [ 2.91 GB ] Миньоны: Грювитация / Minions: The Rise of Gru | й | DLRip 720p / 60 FPS MVO slaventi-69 Скачать
31 | 0
Фильмы с украинским озвучиванием [ 1.89 GB ] Миньоны: Грювитация / Посіпаки: Становлення Лиходія / Minions: The Rise of Gru | DUB | DLRip-AVC killermax2013 Скачать
3 | 0
Иностранные мультфильмы [ 1.47 GB ] Миньоны: Грювитация / Minions: The Rise of Gru | Jaskier | DLRip bober100 Скачать
12 | 0
Зарубежные Мультфильмы (BDRip 1080p, 720p, Blu-ray, BD-Remux) [ 10.26 GB ] Миньоны: Грювитация / Minions: The Rise of Gru | Jaskier | 1080p bober100 Скачать
11 | 0

28-11-2019 20:33  


Отключить вcю реклaмy на сайте, в т.ч. и в плеере онлайн просмотра!

    Дорогой пользователь! Огромная просьба, поблагодарите релизера, оцените раздачу и оставьте свои комментарий, если Вы скачали Миньоны: Грювитация через торрент бесплатно!!
    Комментировать посты могут только пользователи прошедшие не сложную регистрацию
    Показать сообщения:    


    Миньоны: Грювитация через торрент
    Скачать бесплатно Миньоны: Грювитация
    Миньоны: Грювитация скачать торрент
    Миньоны: Грювитация смотреть онлайн
    Cкачать фильм Миньоны: Грювитация бесплатно
    Миньоны: Грювитация скачать торрент в хорошем качестве
    Миньоны: Грювитация смотреть онлайн бесплатно в хорошем качестве
    Вы не можете начинать темы
    Вы не можете отвечать на сообщения
    Вы не можете редактировать свои сообщения
    Вы не можете удалять свои сообщения
    Вы не можете голосовать в опросах
    Вы не можете прикреплять файлы к сообщениям
    Вы можете скачивать файлы
    Миньоны: Грювитация / Minions: The rise of Gru [2022, Мультфильм, фантастика, комедия, криминал, приключения, семейный, HDRip-AVC] MVO [Jaskier, TVShows] от ExKinoRay смотреть онлайн, скачать торрент picoco.icu