Доктор Стрэндж

Лицензия

Добыча

Дубляж

Уэнсдэй

1 сезон

Тор

Дубляж

В эфире

Дубляж

Там, где раки поют

MVO

Властелин колец

1 сезон

Deluxe

pack

Рекомендуем

30

Пиратка

ВАЖНО

ВАЖНО

Ghostwire

Пиратка

jed

RePack

nioh2

RePack

RDR2

RePack

NEED FOR SPEED™ PAYBACK

RePack

скачать торрент

Кинопоиск HD

Острые козырьки 6 сезон

6 сезон

FAR CRY 6

RePack

скачать торрент

Лицензия

скачать торрент

MVO

1

1 сезон

скачать торрент

1 сезон

скачать торрент

Лицензия

  

Скрежет / Pahanhautoja (Ханна Бергхольм) [2022, Ужасы, WEB-DL 1080p] Дубляж [iTunes]

Скрежет через торрент pb.wtf

Раздают: 3 [ 0 KB/s ]
Размер: 5.08 GB | Добавлен: 6 мес. назад | Торрент скачан:254 раза
Смотреть онлайн | Скачать   

27-05-2022 03:20 Скрежет Скачать торрент  

Скрежет
Pahanhautoja

Год выпуска: 2022
Страна: Финляндия, Швеция
Студия: Evil Doghouse Productions, Film i Väst, Hobab, Silva Mysterium Oy, uMedia Family
Жанр: Ужасы
Продолжительность: 01:26:57
Перевод: Дублированный | iTunes
Субтитры: Русские (Forced, Full), английские

Режиссер: Ханна Бергхольм

rating

В ролях: Сиири Солалинна, София Хейккиля, Яни Воланен, Рейно Нордин, Ойва Оллила, Ида Мяаттянен, Сайя Лентонен, Стелла Леппикорпи, Хертта Ниминен, Аада Пунакиви

Описание: 12-летняя Тинья занимается гимнастикой и всячески пытается угодить озабоченной имиджем матери — достичь высот в спорте и быть идеальной дочерью. Однажды после череды неприятных событий девочка находит брошенное, как она думала, птичье яйцо, решает не дать ему погибнуть и забирает домой. Находка достигает невероятных размеров, и вскоре из яйца вылупляется неведомая зверушка.

Качество: WEB-DL 1080p
Формат: MKV

Видео: MPEG-4 AVC, 7340 Кb/s, 1920x1040, 25 fps
Аудио: Russian: AC3, 384 Kb/s (6 ch)
Аудио: Finnish: E-AC3, 640 Kb/s (6 ch)
скриншот  скриншот  скриншот  скриншот  

Complete name: Skrezhet.2022.WEB-DL.1080p.ELEKTRI4KA.UNIONGANG.mkv
Format: Matroska
Format version: Version 4
File size: 5.08 GiB
Duration: 1 h 26 min
Overall bit rate: 8 366 kb/s
Movie name: Skrezhet.2022.WEB-DL.1080p.ELEKTRI4KA.UNIONGANG.
Encoded date: UTC 2022-05-26 18:02:23
Writing application: mkvmerge v8.3.0 ('Over the Horizon') 32bit
Writing library: libebml v1.3.1 + libmatroska v1.4.2

Video
ID: 1
Format: AVC
Format/Info: Advanced Video Codec
Format profile: [email protected]
Format settings: CABAC / 4 Ref Frames
Format settings, CABAC: Yes
Format settings, Reference frames: 4 frames
Codec ID: V_MPEG4/ISO/AVC
Duration: 1 h 26 min
Bit rate mode: Constant
Bit rate: 7 340 kb/s
Nominal bit rate: 10 000 kb/s
Width: 1 920 pixels
Height: 1 040 pixels
Display aspect ratio: 1.85:1
Frame rate mode: Constant
Frame rate: 25.000 FPS
Color space: YUV
Chroma subsampling: 4:2:0
Bit depth: 8 bits
Scan type: Progressive
Bits/(Pixel*Frame): 0.147
Stream size: 4.46 GiB (88%)
Default: Yes
Forced: No
Color range: Limited
Color primaries: BT.709
Transfer characteristics: BT.709
Matrix coefficients: BT.709

Audio #1
ID: 2
Format: AC-3
Format/Info: Audio Coding 3
Commercial name: Dolby Digital
Codec ID: A_AC3
Duration: 1 h 26 min
Bit rate mode: Constant
Bit rate: 384 kb/s
Channel(s): 6 channels
Channel layout: L R C LFE Ls Rs
Sampling rate: 48.0 kHz
Frame rate: 31.250 FPS (1536 SPF)
Compression mode: Lossy
Stream size: 239 MiB (5%)
Title: Дубляж (iTunes)
Language: Russian
Service kind: Complete Main
Default: Yes
Forced: Yes

Audio #2
ID: 3
Format: E-AC-3
Format/Info: Enhanced AC-3
Commercial name: Dolby Digital Plus
Codec ID: A_EAC3
Duration: 1 h 26 min
Bit rate mode: Constant
Bit rate: 640 kb/s
Channel(s): 6 channels
Channel layout: L R C LFE Ls Rs
Sampling rate: 48.0 kHz
Frame rate: 31.250 FPS (1536 SPF)
Compression mode: Lossy
Stream size: 398 MiB (8%)
Title: Original
Language: Finnish
Service kind: Complete Main
Default: No
Forced: No

Text #1
ID: 4
Format: UTF-8
Codec ID: S_TEXT/UTF8
Codec ID/Info: UTF-8 Plain Text
Duration: 29 min 17 s
Bit rate: 3 b/s
Count of elements: 18
Stream size: 739 Bytes (0%)
Title: Forced
Language: Russian
Default: Yes
Forced: No

Text #2
ID: 5
Format: UTF-8
Codec ID: S_TEXT/UTF8
Codec ID/Info: UTF-8 Plain Text
Duration: 1 h 20 min
Bit rate: 37 b/s
Count of elements: 495
Stream size: 22.4 KiB (0%)
Title: Full
Language: Russian
Default: No
Forced: No

Text #3
ID: 6
Format: UTF-8
Codec ID: S_TEXT/UTF8
Codec ID/Info: UTF-8 Plain Text
Duration: 1 h 20 min
Bit rate: 21 b/s
Count of elements: 502
Stream size: 12.7 KiB (0%)
Language: English
Default: No
Forced: No

Text #4
ID: 7
Format: UTF-8
Codec ID: S_TEXT/UTF8
Codec ID/Info: UTF-8 Plain Text
Duration: 1 h 22 min
Bit rate: 28 b/s
Count of elements: 851
Stream size: 17.5 KiB (0%)
Title: SDH
Language: English
Default: No
Forced: No




Скачать Скрежет через торрент https://i120.fastpic.org/big/2022/0526/3b/42629c1512b1f66a972d07ae4ec3cd3b.jpg Скачать, смотреть онлайн Скрежет бесплантно в хорошем качестве Описание: 12-летняя Тинья занимается гимнастикой и всячески пытается угодить озабоченной имиджем матери — достичь высот в спорте и быть ... 9.2 10 11
Торрент: Зарегистрирован [2022-05-27 03:20] · скачан: 254 раз
Статус: √ проверено
Размер: 5.08 GB
Как cкачать? Как скачать Скрежет через торрент | UTorrent

% Раздел Тема Автор DL S | L
Фильмы [HD 720p, 1080p] (Хороший звук DUB, MVO) [ 7.1 GB ] Скрежет / Pahanhautoja | iTunes | 1080p bober100 Скачать
3 | 0
Фильмы 2022 [DVDrip, WEB-DLRip, HDrip] (DUB, MVO) [ 1.42 GB ] Скрежет / Pahanhautoja | iTunes | BDRip bober100 Скачать
1 | 0
Фильмы 2022 [DVDrip, WEB-DLRip, HDrip] (DUB, MVO) [ 746 MB ] Скрежет / Pahanhautoja | iTunes | BDRip bober100 Скачать
2 | 0
Фильмы [HD 720p, 1080p] (Хороший звук DUB, MVO) [ 3.18 GB ] Скрежет / Pahanhautoja | iTunes | 720p bober100 Скачать
1 | 0
Фильмы (WEB-DL 720p, 1080p) [ 2.26 GB ] Скрежет / Pahanhautoja | iTunes | 720p bober100 Скачать
1 | 0

28-11-2019 20:33  


Отключить вcю реклaмy на сайте, в т.ч. и в плеере онлайн просмотра!

27-05-2022 09:31 Скрежет Скачать торрент  

слишком разные отзывы.надо смотреть самому
посмотрел-лучше бы не смотрел)



29-08-2022 10:38 Скрежет Скачать торрент  

Эх и ХУ-Е-ТТАА. 3,5 макс этому г...



    Дорогой пользователь! Огромная просьба, поблагодарите релизера, оцените раздачу и оставьте свои комментарий, если Вы скачали Скрежет через торрент бесплатно!!
    Комментировать посты могут только пользователи прошедшие не сложную регистрацию
    Показать сообщения:    


    Скрежет через торрент
    Скачать бесплатно Скрежет
    Скрежет скачать торрент
    Скрежет смотреть онлайн
    Cкачать фильм Скрежет бесплатно
    Скрежет скачать торрент в хорошем качестве
    Скрежет смотреть онлайн бесплатно в хорошем качестве
    Вы не можете начинать темы
    Вы не можете отвечать на сообщения
    Вы не можете редактировать свои сообщения
    Вы не можете удалять свои сообщения
    Вы не можете голосовать в опросах
    Вы не можете прикреплять файлы к сообщениям
    Вы можете скачивать файлы
    Скрежет / Pahanhautoja [2022, Ужасы, WEB-DL 1080p] Дубляж [iTunes] смотреть онлайн, скачать торрент picoco.icu