Доктор Стрэндж

Лицензия

Добыча

Дубляж

Уэнсдэй

1 сезон

Тор

Дубляж

В эфире

Дубляж

Там, где раки поют

MVO

Властелин колец

1 сезон

Deluxe

pack

Рекомендуем

30

Пиратка

ВАЖНО

ВАЖНО

Ghostwire

Пиратка

jed

RePack

nioh2

RePack

RDR2

RePack

NEED FOR SPEED™ PAYBACK

RePack

скачать торрент

Кинопоиск HD

Острые козырьки 6 сезон

6 сезон

FAR CRY 6

RePack

скачать торрент

Лицензия

скачать торрент

MVO

1

1 сезон

скачать торрент

1 сезон

скачать торрент

Лицензия

  

Нет / Nope (Джордан Пил) [2022, Ужасы, фантастика, триллер, детектив, WEB-DL 1080p] MVO [Jaskier]

Нет через торрент pb.wtf

Раздают: 6 [ 85 KB/s ]
Размер: 7.18 GB | Добавлен: 3 мес. 8 д. назад | Торрент скачан:419 раз
Смотреть онлайн | Скачать   

25-08-2022 12:31 Нет Скачать торрент  

Нет
Nope

Год выпуска: 2022
Страна: США, Япония
Выпущено: Universal Pictures, Dentsu, Monkeypaw Productions
Жанр: Ужасы, фантастика, триллер, детектив
Продолжительность: 02:10:29
Перевод: Профессиональный (многоголосый) | Jaskier
Субтитры: Русские (Full), английские

Режиссер: Джордан Пил

rating

В ролях: Дэниэл Калуя, Кеке Палмер, Стивен Ян, Брэндон Переа, Майкл Уинкотт, Ренн Шмидт, Кит Дэвид, Девон Грайе, Терри Нотари, Барби Феррейра

Описание: Жители лошадиной фермы в Калифорнии сталкиваются с чем-то поистине жутким и невообразимым. «Нет» — новый авторский хоррор от создателя «Прочь» Джордана Пила..

Качество: WEB-DL 1080p
Формат: MKV

Видео: MPEG-4 AVC, 1920x870, 6655 Kbit/s, 23.976 fps
Аудио #01: 48 kHz, AC3, 5.1, 444 Kbps | Профессиональный многоголосый | Jaskier | RUS |
Аудио #02: 48 kHz, E-AC3+Atmos, 5.1, 768 Kbps | Оригинал | ENG |
скриншот  скриншот  скриншот  скриншот  скриншот  скриншот  

General
Unique ID : 303788931224388920545602554548601289210 (0xE48B9EB4823B9F770153AECC9210F9FA)
Complete name : F:VideoNope.2022.WEB-DL.1080p.seleZen.mkv
Format : Matroska
Format version : Version 4
File size : 7.18 GiB
Duration : 2 h 10 min
Overall bit rate : 7 873 kb/s
Movie name : Nope 2022 from seleZen
Encoded date : UTC 2022-08-27 23:23:58
Writing application : mkvmerge v59.0.0 ('Shining Star') 64-bit
Writing library : libebml v1.4.2 + libmatroska v1.6.4

Video
ID : 1
Format : AVC
Format/Info : Advanced Video Codec
Format profile : [email protected]
Format settings : CABAC / 4 Ref Frames
Format settings, CABAC : Yes
Format settings, Reference : 4 frames
Codec ID : V_MPEG4/ISO/AVC
Duration : 2 h 10 min
Bit rate : 6 655 kb/s
Width : 1 920 pixels
Height : 870 pixels
Display aspect ratio : 2.2:1
Frame rate mode : Constant
Frame rate : 23.976 (24000/1001) FPS
Color space : YUV
Chroma subsampling : 4:2:0
Bit depth : 8 bits
Scan type : Progressive
Bits/(Pixel*Frame) : 0.166
Stream size : 6.07 GiB (85%)
Language : English
Default : Yes
Forced : No
Color range : Limited
Color primaries : BT.709
Transfer characteristics : BT.709
Matrix coefficients : BT.709

Audio #1
ID : 2
Format : AC-3
Format/Info : Audio Coding 3
Commercial name : Dolby Digital
Codec ID : A_AC3
Duration : 2 h 10 min
Bit rate mode : Constant
Bit rate : 448 kb/s
Channel(s) : 6 channels
Channel layout : L R C LFE Ls Rs
Sampling rate : 48.0 kHz
Frame rate : 31.250 FPS (1536 SPF)
Compression mode : Lossy
Stream size : 418 MiB (6%)
Title : MVO [Jaskier]
Language : Russian
Service kind : Complete Main
Default : Yes
Forced : Yes

Audio #2
ID : 3
Format : E-AC-3 JOC
Format/Info : Enhanced AC-3 with Joint Object Coding
Commercial name : Dolby Digital Plus with Dolby Atmos
Codec ID : A_EAC3
Duration : 2 h 10 min
Bit rate mode : Constant
Bit rate : 768 kb/s
Channel(s) : 6 channels
Channel layout : L R C LFE Ls Rs
Sampling rate : 48.0 kHz
Frame rate : 31.250 FPS (1536 SPF)
Compression mode : Lossy
Stream size : 717 MiB (10%)
Title : Original
Language : English
Service kind : Complete Main
Default : No
Forced : No
Complexity index : 16
Number of dynamic objects : 15
Bed channel count : 1 channel
Bed channel configuration : LFE

Text #1
ID : 4
Format : UTF-8
Codec ID : S_TEXT/UTF8
Codec ID/Info : UTF-8 Plain Text
Duration : 2 h 3 min
Bit rate : 73 b/s
Frame rate : 0.205 FPS
Count of elements : 1526
Stream size : 66.6 KiB (0%)
Title : Full [FOCS]
Language : Russian
Default : No
Forced : No

Text #2
ID : 5
Format : UTF-8
Codec ID : S_TEXT/UTF8
Codec ID/Info : UTF-8 Plain Text
Duration : 2 h 9 min
Bit rate : 46 b/s
Frame rate : 0.214 FPS
Count of elements : 1662
Stream size : 43.8 KiB (0%)
Title : Full
Language : English
Default : No
Forced : No

Text #3
ID : 6
Format : UTF-8
Codec ID : S_TEXT/UTF8
Codec ID/Info : UTF-8 Plain Text
Duration : 2 h 10 min
Bit rate : 61 b/s
Frame rate : 0.280 FPS
Count of elements : 2188
Stream size : 58.8 KiB (0%)
Title : SDH
Language : English
Default : No
Forced : No

Menu
00:00:00.000 : Chapter 01
00:08:10.490 : Chapter 02
00:16:51.344 : Chapter 03
00:25:32.949 : Chapter 04
00:33:42.939 : Chapter 05
00:40:01.276 : Chapter 06
00:48:41.171 : Chapter 07
00:57:38.291 : Chapter 08
01:04:25.115 : Chapter 09
01:12:37.023 : Chapter 10
01:20:25.492 : Chapter 11
01:29:20.777 : Chapter 12
01:36:03.972 : Chapter 13
01:45:07.432 : Chapter 14
01:53:34.689 : Chapter 15
02:01:52.687 : Chapter 16




Скачать Нет через торрент https://i120.fastpic.org/big/2022/0828/be/797bb2fc04f2c8a1d9fe5a2d5cdf77be.jpg Скачать, смотреть онлайн Нет бесплантно в хорошем качестве Описание: Жители лошадиной фермы в Калифорнии сталкиваются с чем-то поистине жутким и невообразимым. «Нет» — новый авторский хоррор от ... 9.3 10 18
Info! Золотая раздача, скачанное не засчитывается.
Торрент: Зарегистрирован [2022-08-28 01:18] · скачан: 419 раз
Статус: √ проверено
Размер: 7.18 GB
Как cкачать? Как скачать Нет через торрент | UTorrent

% Раздел Тема Автор DL S | L
Фильмы [HD 720p, 1080p] (Хороший звук DUB, MVO) [ 11.94 GB ] Нет / Nope | Jaskier | 1080p bober100 Скачать
5 | 0
Фильмы [HD 720p, 1080p] (Хороший звук DUB, MVO) [ 4.03 GB ] Нет / Nope | Jaskier | 720p bober100 Скачать
4 | 0
Фильмы 2022 [DVDrip, WEB-DLRip, HDrip] (DUB, MVO) [ 2.85 GB ] Нет / Nope | Jaskier | DLRip-AVC bober100 Скачать
7 | 0
Фильмы 2022 [DVDrip, WEB-DLRip, HDrip] (DUB, MVO) [ 2.37 GB ] Нет / Nope | Jaskier | DLRip-AVC Lithuania Скачать
4 | 0
Фильмы 2022 [DVDrip, WEB-DLRip, HDrip] (DUB, MVO) [ 1.46 GB ] Нет / Nope | Jaskier | DLRip bober100 Скачать
7 | 0
Ultra HD (UHD: 2K, 4K, 8K) [ 14.35 GB ] Нет / Nope | Jaskier | 2160p bober100 Скачать
3 | 0



Последний раз редактировалось: bober100 (2022-08-28 02:43), всего редактировалось 3 раз(а)

28-11-2019 20:33  


Отключить вcю реклaмy на сайте, в т.ч. и в плеере онлайн просмотра!

25-08-2022 12:57 Нет Скачать торрент  

Большое спасибо! Трейлер очень интересный , ждал этот фильм



25-08-2022 13:00 Нет Скачать торрент  

Слишком много ЧЁРНОГО юмора



26-08-2022 00:58 Нет Скачать торрент  

фильм не впечатлил.очень неторопливый.запрягали слишком долго.на ужастик не тянет.фантастика одним словом.да еще вся эта геометрия в оконцовке.так себе на один раз для кругозора.



27-08-2022 22:52 Нет Скачать торрент  

Отличный фильм, если накуриться в сопли



28-08-2022 17:15 Нет Скачать торрент  

Уснул, не выдержал черного юмора! Хотел посмотреть о Самаре или этот, сегодня Самару посмотрю.



29-08-2022 15:29 Нет Скачать торрент  

описание - кусок тряпки наводит шорох на лошадиной ферме



    Дорогой пользователь! Огромная просьба, поблагодарите релизера, оцените раздачу и оставьте свои комментарий, если Вы скачали Нет через торрент бесплатно!!
    Комментировать посты могут только пользователи прошедшие не сложную регистрацию
    Показать сообщения:    


    Нет через торрент
    Скачать бесплатно Нет
    Нет скачать торрент
    Нет смотреть онлайн
    Cкачать фильм Нет бесплатно
    Нет скачать торрент в хорошем качестве
    Нет смотреть онлайн бесплатно в хорошем качестве
    Вы не можете начинать темы
    Вы не можете отвечать на сообщения
    Вы не можете редактировать свои сообщения
    Вы не можете удалять свои сообщения
    Вы не можете голосовать в опросах
    Вы не можете прикреплять файлы к сообщениям
    Вы можете скачивать файлы
    Нет / Nope [2022, Ужасы, фантастика, триллер, детектив, WEB-DL 1080p] MVO [Jaskier] смотреть онлайн, скачать торрент picoco.icu