Доктор Стрэндж

Лицензия

Добыча

Дубляж

Уэнсдэй

1 сезон

Тор

Дубляж

В эфире

Дубляж

Там, где раки поют

MVO

Властелин колец

1 сезон

Deluxe

pack

Рекомендуем

30

Пиратка

ВАЖНО

ВАЖНО

Ghostwire

Пиратка

jed

RePack

nioh2

RePack

RDR2

RePack

NEED FOR SPEED™ PAYBACK

RePack

скачать торрент

Кинопоиск HD

Острые козырьки 6 сезон

6 сезон

FAR CRY 6

RePack

скачать торрент

Лицензия

скачать торрент

MVO

1

1 сезон

скачать торрент

1 сезон

скачать торрент

Лицензия

  

Чужие: Поле битвы - Земля / Alien: Battlefield Earth (Эндрю Джонс) [2021, Фантастика, WEB-DL 1080p] MVO (rus, ukr) [IVI]

Чужие: Поле битвы - Земля через торрент pb.wtf

Раздают: 2 [ 0 KB/s ]
Размер: 3.6 GB | Добавлен: 3 мес. 6 д. назад | Торрент скачан:176 раз
Смотреть онлайн | Скачать   

29-08-2022 03:23 Чужие: Поле битвы - Земля Скачать торрент  

Чужие: Поле битвы - Земля
Alien: Battlefield Earth

Год выпуска: 2021
Страна: Великобритания, США
Выпущено: North Bank Entertainment
Жанр: Фантастика
Продолжительность: 01:22:18
Перевод: Профессиональный (многоголосый) | IVI
Субтитры: отсутствуют

Режиссер: Эндрю Джонс

rating

В ролях: Дерек Нельсон, Николя Райт, Эмма Стейси, Скот Скерлок, Томас Марк Хиггинс, Питер Косгров, Майкл Кэмерон Басс, Эштон Спир, Райан Майклс, Шаррон Джонс

Описание: Американские военные находят двух пришельцев в пустыне Невада. Это провоцирует инопланетян из системы Дзета Сетки начать вторжение на Землю.

Качество: WEB-DL 1080p
Формат: MKV

Видео: MPEG-4 AVC, 5120 Kb/s, 1920x812, 24 fps
Аудио #1: Russian: 48 kHz, AC3 Dolby Digital, 3/2 (L, C, R, l, r) + LFE ch, ~384 Kbps | MVO | IVI
Аудио #2: Ukrainian: 48 kHz, AC3 Dolby Digital, 3/2 (L, C, R, l, r) + LFE ch, ~384 Kbps | MVO | IVI
Аудио #3: English: 48 kHz, AC3 Dolby Digital, 3/2 (L, C, R, l, r) + LFE ch, ~384 Kbps | Orignal
скриншот  скриншот  скриншот  скриншот  

Complete name: Chuzhie.Pole.Bitvyi.Zemlya.2021.WEB-DL.1080p.ELEKTRI4KA.UNIONGANG.mkv
Format: Matroska
Format version: Version 4
File size: 3.60 GiB
Duration: 1 h 22 min
Overall bit rate: 6 263 kb/s
Movie name: Chuzhie.Pole.Bitvyi.Zemlya.2021.WEB-DL.1080p.ELEKTRI4KA.UNIONGANG.
Encoded date: UTC 2022-08-28 18:19:36
Writing application: mkvmerge v8.3.0 ('Over the Horizon') 32bit
Writing library: libebml v1.3.1 + libmatroska v1.4.2

Video
ID: 1
Format: AVC
Format/Info: Advanced Video Codec
Format profile: [email protected]
Format settings: CABAC / 4 Ref Frames
Format settings, CABAC: Yes
Format settings, Reference frames: 4 frames
Codec ID: V_MPEG4/ISO/AVC
Duration: 1 h 22 min
Bit rate: 5 120 kb/s
Width: 1 920 pixels
Height: 812 pixels
Display aspect ratio: 2.35:1
Frame rate mode: Constant
Frame rate: 24.000 FPS
Color space: YUV
Chroma subsampling: 4:2:0
Bit depth: 8 bits
Scan type: Progressive
Bits/(Pixel*Frame): 0.137
Stream size: 2.94 GiB (82%)
Writing library: x264 core 152 r2854 e9a5903
Encoding settings: cabac=1 / ref=3 / deblock=1:0:0 / analyse=0x3:0x113 / me=hex / subme=7 / psy=1 / psy_rd=1.00:0.00 / mixed_ref=1 / me_range=16 / chroma_me=1 / trellis=1 / 8x8dct=1 / cqm=0 / deadzone=21, 11 / fast_pskip=1 / chroma_qp_offset=-2 / threads=25 / lookahead_threads=4 / sliced_threads=0 / nr=0 / decimate=1 / interlaced=0 / bluray_compat=0 / constrained_intra=0 / bframes=6 / b_pyramid=2 / b_adapt=1 / b_bias=0 / direct=1 / weightb=1 / open_gop=0 / weightp=2 / keyint=48 / keyint_min=25 / scenecut=0 / intra_refresh=0 / rc_lookahead=40 / rc=2pass / mbtree=1 / bitrate=5120 / ratetol=1.0 / qcomp=0.60 / qpmin=0 / qpmax=69 / qpstep=4 / cplxblur=20.0 / qblur=0.5 / vbv_maxrate=7680 / vbv_bufsize=20480 / nal_hrd=none / filler=0 / ip_ratio=1.40 / aq=1:1.00
Default: Yes
Forced: No

Audio #1
ID: 2
Format: AC-3
Format/Info: Audio Coding 3
Commercial name: Dolby Digital
Codec ID: A_AC3
Duration: 1 h 22 min
Bit rate mode: Constant
Bit rate: 384 kb/s
Channel(s): 6 channels
Channel layout: L R C LFE Ls Rs
Sampling rate: 48.0 kHz
Frame rate: 31.250 FPS (1536 SPF)
Compression mode: Lossy
Stream size: 226 MiB (6%)
Title: MVO (IVI)
Language: Russian
Service kind: Complete Main
Default: Yes
Forced: Yes

Audio #2
ID: 3
Format: AC-3
Format/Info: Audio Coding 3
Commercial name: Dolby Digital
Codec ID: A_AC3
Duration: 1 h 22 min
Bit rate mode: Constant
Bit rate: 384 kb/s
Channel(s): 6 channels
Channel layout: L R C LFE Ls Rs
Sampling rate: 48.0 kHz
Frame rate: 31.250 FPS (1536 SPF)
Compression mode: Lossy
Stream size: 226 MiB (6%)
Title: MVO (IVI)
Language: Ukrainian
Service kind: Complete Main
Default: No
Forced: No

Audio #3
ID: 4
Format: AC-3
Format/Info: Audio Coding 3
Commercial name: Dolby Digital
Codec ID: A_AC3
Duration: 1 h 22 min
Bit rate mode: Constant
Bit rate: 384 kb/s
Channel(s): 6 channels
Channel layout: L R C LFE Ls Rs
Sampling rate: 48.0 kHz
Frame rate: 31.250 FPS (1536 SPF)
Compression mode: Lossy
Stream size: 226 MiB (6%)
Title: Original
Language: English
Service kind: Complete Main
Default: No
Forced: No




Скачать Чужие: Поле битвы - Земля через торрент https://i120.fastpic.org/big/2022/0828/ca/9d2fb1e9354f75a38ef38702770b4eca.jpg Скачать, смотреть онлайн Чужие: Поле битвы - Земля бесплантно в хорошем качестве Описание: Американские военные находят двух пришельцев в пустыне Невада. Это провоцирует инопланетян из системы Дзета Сетки начать ... 8.6 10 7
Info! Золотая раздача, скачанное не засчитывается.
Торрент: Зарегистрирован [2022-08-29 03:23] · скачан: 176 раз
Статус: √ проверено
Размер: 3.6 GB
Как cкачать? Как скачать Чужие: Поле битвы - Земля через торрент | UTorrent

% Раздел Тема Автор DL S | L
Фильмы 2021 [DVDrip, WEB-DLRip, HDrip] (DUB, MVO) [ 1.55 GB ] Чужие: Поле битвы - Земля / Alien: Battlefield Earth | IVI | DLRip-AVC bober100 Скачать
1 | 0
Фильмы 2021 [DVDrip, WEB-DLRip, HDrip] (DUB, MVO) [ 1.47 GB ] Чужие: Поле битвы - Земля / Alien: Battlefield Earth | IVI | DLRip bober100 Скачать
1 | 0

28-11-2019 20:33  


Отключить вcю реклaмy на сайте, в т.ч. и в плеере онлайн просмотра!

29-08-2022 15:17 Чужие: Поле битвы - Земля Скачать торрент  

Заценим трешнячок.






Последний раз редактировалось: БОГАТЫРЬ (2022-08-30 14:50), всего редактировалось 1 раз

30-08-2022 14:49 Чужие: Поле битвы - Земля Скачать торрент  

Ахтунг!!! Вроде и графон для такого фильма нормальный, но один и тот же кадр за 10-15 минут по 5-7 раз!



30-08-2022 19:08 Чужие: Поле битвы - Земля Скачать торрент  

рейтинг аж 1.9



31-08-2022 07:10 Чужие: Поле битвы - Земля Скачать торрент  

fanavil писал(а):

рейтинг аж 1.9

Кинопоиск вообще бомбанул!



    Дорогой пользователь! Огромная просьба, поблагодарите релизера, оцените раздачу и оставьте свои комментарий, если Вы скачали Чужие: Поле битвы - Земля через торрент бесплатно!!
    Комментировать посты могут только пользователи прошедшие не сложную регистрацию
    Показать сообщения:    


    Чужие: Поле битвы - Земля через торрент
    Скачать бесплатно Чужие: Поле битвы - Земля
    Чужие: Поле битвы - Земля скачать торрент
    Чужие: Поле битвы - Земля смотреть онлайн
    Cкачать фильм Чужие: Поле битвы - Земля бесплатно
    Чужие: Поле битвы - Земля скачать торрент в хорошем качестве
    Чужие: Поле битвы - Земля смотреть онлайн бесплатно в хорошем качестве
    Вы не можете начинать темы
    Вы не можете отвечать на сообщения
    Вы не можете редактировать свои сообщения
    Вы не можете удалять свои сообщения
    Вы не можете голосовать в опросах
    Вы не можете прикреплять файлы к сообщениям
    Вы можете скачивать файлы
    Чужие: Поле битвы - Земля / Alien: Battlefield Earth [2021, Фантастика, WEB-DL 1080p] MVO [IVI] смотреть онлайн, скачать торрент picoco.icu