Доктор Стрэндж

Лицензия

Добыча

Дубляж

Уэнсдэй

1 сезон

Тор

Дубляж

В эфире

Дубляж

Там, где раки поют

MVO

Властелин колец

1 сезон

Deluxe

pack

Рекомендуем

30

Пиратка

ВАЖНО

ВАЖНО

Ghostwire

Пиратка

jed

RePack

nioh2

RePack

RDR2

RePack

NEED FOR SPEED™ PAYBACK

RePack

скачать торрент

Кинопоиск HD

Острые козырьки 6 сезон

6 сезон

FAR CRY 6

RePack

скачать торрент

Лицензия

скачать торрент

MVO

1

1 сезон

скачать торрент

1 сезон

скачать торрент

Лицензия

  

Время для себя / Me Time (Джон Гамбург) [2022, Комедия, WEB-DL 1080p] DVO [Pazl Voice]

Время для себя через торрент pb.wtf

Раздают: 2 [ 0 KB/s ]
Размер: 3.14 GB | Добавлен: 3 мес. 4 д. назад | Торрент скачан:317 раз
Смотреть онлайн | Скачать   

30-08-2022 13:52 Время для себя Скачать торрент  

Время для себя
Me Time

Год выпуска: 2022
Страна: США
Выпущено: 5150 Action, Hartbeat Productions
Жанр: Комедия
Продолжительность: 01:44:06
Перевод: Любительский (двухголосый) | Pazl Voice
Субтитры: Русские, английские, украинские и др.

Режиссер: Джон Гамбург

rating

В ролях: Марк Уолберг, Кевин Харт, Луис Херардо Мендес, Реджина Холл, Джимми О. Ян, Джон Эймос, Таж Моури, Анна Мария Хорсфорд, Эндрю Сантино, Карло Рота

Описание: Сонни и Майя — счастливая пара с двумя детьми. Она работает в архитектурном агентстве, он следит за хозяйством и воспитывает сына с дочерью. Когда друг юности Хак зовет Сонни на уик-энд в честь дня рождения, в размеренной жизни мужчины начинаются приключения и они проводит самый дикий уикенд своей жизни.

Качество: WEB-DL 1080p
Формат: MKV

Видео: MPEG-4 AVC Video / 3086 kbps / 24.000 fps / 1920x1080 / High Profile 4
Аудио#1: russian / AC-3 / 5.1 / 48 kHz / 448 kbps
Аудио#2: english / E-AC-3 JOC+Atmos / 5.1 / 48 kHz / 768 kbps
скриншот  скриншот  скриншот  скриншот  скриншот  

General
Unique ID : 111518659866066135555707029265524933203 (0x53E5B66F892154473C01DDAE57974253)
Complete name : Me.Time.2022.1080p.NF.WEB-DL.DDP5.1.Atmos.H.264.mkv
Format : Matroska
Format version : Version 4 / Version 2
File size : 2.81 GiB
Duration : 1 h 44 min
Overall bit rate mode : Variable
Overall bit rate : 3 863 kb/s
Encoded date : UTC 2022-08-26 09:26:01
Writing application : mkvmerge v68.0.0 ('The Curtain') 32-bit
Writing library : libebml v1.4.2 + libmatroska v1.6.4

Video
ID : 1
Format : AVC
Format/Info : Advanced Video Codec
Format profile : [email protected]
Format settings, CABAC : Yes
Format settings, RefFrames : 3 frames
Codec ID : V_MPEG4/ISO/AVC
Duration : 1 h 44 min
Bit rate mode : Variable
Bit rate : 3 086 kb/s
Nominal bit rate : 3 830 kb/s
Maximum bit rate : 5 745 kb/s
Width : 1 920 pixels
Height : 1 080 pixels
Display aspect ratio : 16:9
Frame rate mode : Constant
Frame rate : 24.000 FPS
Color space : YUV
Chroma subsampling : 4:2:0
Bit depth : 8 bits
Scan type : Progressive
Bits/(Pixel*Frame) : 0.062
Stream size : 2.24 GiB (80%)
Writing library : x264 core 148 r2727 7d026e8
Encoding settings : cabac=1 / ref=3 / deblock=1:0:0 / analyse=0x1:0x111 / me=umh / subme=10 / psy=1 / psy_rd=1.00:0.00 / mixed_ref=1 / me_range=24 / chroma_me=1 / trellis=2 / 8x8dct=0 / cqm=0 / deadzone=21,11 / fast_pskip=1 / chroma_qp_offset=-2 / threads=8 / lookahead_threads=1 / sliced_threads=0 / nr=0 / decimate=1 / interlaced=0 / bluray_compat=0 / stitchable=1 / constrained_intra=0 / bframes=2 / b_pyramid=0 / b_adapt=2 / b_bias=0 / direct=3 / weightb=1 / open_gop=0 / weightp=2 / keyint=250 / keyint_min=24 / scenecut=0 / intra_refresh=0 / rc_lookahead=48 / rc=2pass / mbtree=1 / bitrate=3830 / ratetol=1.0 / qcomp=0.50 / qpmin=6 / qpmax=51 / qpstep=4 / cplxblur=20.0 / qblur=0.5 / vbv_maxrate=5745 / vbv_bufsize=7660 / nal_hrd=vbr / filler=0 / ip_ratio=1.40 / aq=1:1.00
Language : English
Default : Yes
Forced : No

Audio
ID : 2
Format : E-AC-3
Format/Info : Enhanced Audio Coding 3
Format profile : E-AC-3+Atmos / E-AC-3
Format settings, Endianness : Big
Codec ID : A_EAC3
Duration : 1 h 44 min
Bit rate mode : Constant
Bit rate : 768 kb/s
Channel(s) : 15 objects / 6 channels
Channel positions : 15 objects / Front: L C R, Side: L R, LFE
Sampling rate : 48.0 kHz
Frame rate : 187.500 FPS (256 SPF)
Compression mode : Lossy
Stream size : 572 MiB (20%)
Language : English
Service kind : Complete Main
Default : Yes
Forced : No

Text #1
ID : 3
Format : UTF-8
Codec ID : S_TEXT/UTF8
Codec ID/Info : UTF-8 Plain Text
Duration : 1 h 41 min
Bit rate : 132 b/s
Count of elements : 2038
Stream size : 99.1 KiB (0%)
Language : Russian
Default : Yes
Forced : No

Text #2
ID : 4
Format : UTF-8
Codec ID : S_TEXT/UTF8
Codec ID/Info : UTF-8 Plain Text
Duration : 1 h 41 min
Bit rate : 120 b/s
Count of elements : 2298
Stream size : 89.6 KiB (0%)
Title : SDH
Language : English
Default : No
Forced : No

Text #3
ID : 5
Format : UTF-8
Codec ID : S_TEXT/UTF8
Codec ID/Info : UTF-8 Plain Text
Duration : 1 h 37 min
Bit rate : 116 b/s
Count of elements : 2177
Stream size : 83.4 KiB (0%)
Language : English
Default : No
Forced : No

Text #4
ID : 6
Format : UTF-8
Codec ID : S_TEXT/UTF8
Codec ID/Info : UTF-8 Plain Text
Duration : 1 h 35 min
Bit rate : 185 b/s
Count of elements : 2028
Stream size : 129 KiB (0%)
Language : Arabic
Default : No
Forced : No

Text #5
ID : 7
Format : UTF-8
Codec ID : S_TEXT/UTF8
Codec ID/Info : UTF-8 Plain Text
Duration : 1 h 41 min
Bit rate : 81 b/s
Count of elements : 1981
Stream size : 60.9 KiB (0%)
Language : Catalan
Default : No
Forced : No

Text #6
ID : 8
Format : UTF-8
Codec ID : S_TEXT/UTF8
Codec ID/Info : UTF-8 Plain Text
Duration : 1 h 41 min
Bit rate : 85 b/s
Count of elements : 2013
Stream size : 64.0 KiB (0%)
Language : Czech
Default : No
Forced : No

Text #7
ID : 9
Format : UTF-8
Codec ID : S_TEXT/UTF8
Codec ID/Info : UTF-8 Plain Text
Duration : 1 h 41 min
Bit rate : 81 b/s
Count of elements : 1881
Stream size : 60.5 KiB (0%)
Language : Danish
Default : No
Forced : No

Text #8
ID : 10
Format : UTF-8
Codec ID : S_TEXT/UTF8
Codec ID/Info : UTF-8 Plain Text
Duration : 1 h 41 min
Bit rate : 78 b/s
Count of elements : 1886
Stream size : 58.3 KiB (0%)
Language : German
Default : No
Forced : No

Text #9
ID : 11
Format : UTF-8
Codec ID : S_TEXT/UTF8
Codec ID/Info : UTF-8 Plain Text
Duration : 1 h 41 min
Bit rate : 138 b/s
Count of elements : 1994
Stream size : 103 KiB (0%)
Language : Greek
Default : No
Forced : No

Text #10
ID : 12
Format : UTF-8
Codec ID : S_TEXT/UTF8
Codec ID/Info : UTF-8 Plain Text
Duration : 1 h 41 min
Bit rate : 101 b/s
Count of elements : 2007
Stream size : 75.6 KiB (0%)
Language : Spanish
Default : No
Forced : No

Text #11
ID : 13
Format : UTF-8
Codec ID : S_TEXT/UTF8
Codec ID/Info : UTF-8 Plain Text
Duration : 1 h 41 min
Bit rate : 84 b/s
Count of elements : 1978
Stream size : 62.7 KiB (0%)
Language : Basque
Default : No
Forced : No

Text #12
ID : 14
Format : UTF-8
Codec ID : S_TEXT/UTF8
Codec ID/Info : UTF-8 Plain Text
Duration : 1 h 41 min
Bit rate : 82 b/s
Count of elements : 1889
Stream size : 61.4 KiB (0%)
Language : Finnish
Default : No
Forced : No

Text #13
ID : 15
Format : UTF-8
Codec ID : S_TEXT/UTF8
Codec ID/Info : UTF-8 Plain Text
Duration : 1 h 41 min
Bit rate : 92 b/s
Count of elements : 2002
Stream size : 69.2 KiB (0%)
Language : fil
Default : No
Forced : No

Text #14
ID : 16
Format : UTF-8
Codec ID : S_TEXT/UTF8
Codec ID/Info : UTF-8 Plain Text
Duration : 1 h 41 min
Bit rate : 83 b/s
Count of elements : 1911
Stream size : 62.0 KiB (0%)
Language : French
Default : No
Forced : No

Text #15
ID : 17
Format : UTF-8
Codec ID : S_TEXT/UTF8
Codec ID/Info : UTF-8 Plain Text
Duration : 1 h 41 min
Bit rate : 79 b/s
Count of elements : 1995
Stream size : 59.4 KiB (0%)
Language : Galician
Default : No
Forced : No

Text #16
ID : 18
Format : UTF-8
Codec ID : S_TEXT/UTF8
Codec ID/Info : UTF-8 Plain Text
Duration : 1 h 41 min
Bit rate : 151 b/s
Count of elements : 1963
Stream size : 113 KiB (0%)
Language : Hebrew
Default : No
Forced : No

Text #17
ID : 19
Format : UTF-8
Codec ID : S_TEXT/UTF8
Codec ID/Info : UTF-8 Plain Text
Duration : 1 h 41 min
Bit rate : 82 b/s
Count of elements : 2012
Stream size : 61.2 KiB (0%)
Language : Croatian
Default : No
Forced : No

Text #18
ID : 20
Format : UTF-8
Codec ID : S_TEXT/UTF8
Codec ID/Info : UTF-8 Plain Text
Duration : 1 h 41 min
Bit rate : 82 b/s
Count of elements : 1991
Stream size : 61.3 KiB (0%)
Language : Hungarian
Default : No
Forced : No

Text #19
ID : 21
Format : UTF-8
Codec ID : S_TEXT/UTF8
Codec ID/Info : UTF-8 Plain Text
Duration : 1 h 41 min
Bit rate : 85 b/s
Count of elements : 2027
Stream size : 64.1 KiB (0%)
Language : Indonesian
Default : No
Forced : No

Text #20
ID : 22
Format : UTF-8
Codec ID : S_TEXT/UTF8
Codec ID/Info : UTF-8 Plain Text
Duration : 1 h 41 min
Bit rate : 78 b/s
Count of elements : 2025
Stream size : 58.4 KiB (0%)
Language : Italian
Default : No
Forced : No

Text #21
ID : 23
Format : UTF-8
Codec ID : S_TEXT/UTF8
Codec ID/Info : UTF-8 Plain Text
Duration : 1 h 41 min
Bit rate : 77 b/s
Count of elements : 2161
Stream size : 57.7 KiB (0%)
Language : Japanese
Default : No
Forced : No

Text #22
ID : 24
Format : UTF-8
Codec ID : S_TEXT/UTF8
Codec ID/Info : UTF-8 Plain Text
Duration : 1 h 41 min
Bit rate : 120 b/s
Count of elements : 2059
Stream size : 90.1 KiB (0%)
Language : Korean
Default : No
Forced : No

Text #23
ID : 25
Format : UTF-8
Codec ID : S_TEXT/UTF8
Codec ID/Info : UTF-8 Plain Text
Duration : 1 h 41 min
Bit rate : 83 b/s
Count of elements : 2020
Stream size : 62.1 KiB (0%)
Language : Malay
Default : No
Forced : No

Text #24
ID : 26
Format : UTF-8
Codec ID : S_TEXT/UTF8
Codec ID/Info : UTF-8 Plain Text
Duration : 1 h 41 min
Bit rate : 85 b/s
Count of elements : 1901
Stream size : 64.1 KiB (0%)
Language : Norwegian Bokmal
Default : No
Forced : No

Text #25
ID : 27
Format : UTF-8
Codec ID : S_TEXT/UTF8
Codec ID/Info : UTF-8 Plain Text
Duration : 1 h 41 min
Bit rate : 81 b/s
Count of elements : 1718
Stream size : 60.9 KiB (0%)
Language : Dutch
Default : No
Forced : No

Text #26
ID : 28
Format : UTF-8
Codec ID : S_TEXT/UTF8
Codec ID/Info : UTF-8 Plain Text
Duration : 1 h 41 min
Bit rate : 71 b/s
Count of elements : 1983
Stream size : 53.5 KiB (0%)
Language : Polish
Default : No
Forced : No

Text #27
ID : 29
Format : UTF-8
Codec ID : S_TEXT/UTF8
Codec ID/Info : UTF-8 Plain Text
Duration : 1 h 41 min
Bit rate : 80 b/s
Count of elements : 2004
Stream size : 59.9 KiB (0%)
Language : Portuguese
Default : No
Forced : No

Text #28
ID : 30
Format : UTF-8
Codec ID : S_TEXT/UTF8
Codec ID/Info : UTF-8 Plain Text
Duration : 1 h 35 min
Bit rate : 105 b/s
Count of elements : 2077
Stream size : 73.9 KiB (0%)
Title : Brazilian
Language : Portuguese
Default : No
Forced : No

Text #29
ID : 31
Format : UTF-8
Codec ID : S_TEXT/UTF8
Codec ID/Info : UTF-8 Plain Text
Duration : 1 h 41 min
Bit rate : 96 b/s
Count of elements : 1973
Stream size : 72.2 KiB (0%)
Language : Romanian
Default : No
Forced : No

Text #30
ID : 32
Format : UTF-8
Codec ID : S_TEXT/UTF8
Codec ID/Info : UTF-8 Plain Text
Duration : 1 h 41 min
Bit rate : 82 b/s
Count of elements : 1686
Stream size : 61.5 KiB (0%)
Language : Swedish
Default : No
Forced : No

Text #31
ID : 33
Format : UTF-8
Codec ID : S_TEXT/UTF8
Codec ID/Info : UTF-8 Plain Text
Duration : 1 h 41 min
Bit rate : 234 b/s
Count of elements : 2035
Stream size : 175 KiB (0%)
Language : Thai
Default : No
Forced : No

Text #32
ID : 34
Format : UTF-8
Codec ID : S_TEXT/UTF8
Codec ID/Info : UTF-8 Plain Text
Duration : 1 h 41 min
Bit rate : 85 b/s
Count of elements : 2012
Stream size : 63.8 KiB (0%)
Language : Turkish
Default : No
Forced : No

Text #33
ID : 35
Format : UTF-8
Codec ID : S_TEXT/UTF8
Codec ID/Info : UTF-8 Plain Text
Duration : 1 h 41 min
Bit rate : 134 b/s
Count of elements : 2025
Stream size : 100 KiB (0%)
Language : Ukrainian
Default : No
Forced : No

Text #34
ID : 36
Format : UTF-8
Codec ID : S_TEXT/UTF8
Codec ID/Info : UTF-8 Plain Text
Duration : 1 h 41 min
Bit rate : 125 b/s
Count of elements : 1999
Stream size : 93.6 KiB (0%)
Language : Vietnamese
Default : No
Forced : No

Text #35
ID : 37
Format : UTF-8
Codec ID : S_TEXT/UTF8
Codec ID/Info : UTF-8 Plain Text
Duration : 1 h 41 min
Bit rate : 101 b/s
Count of elements : 2037
Stream size : 75.7 KiB (0%)
Title : Simplified
Language : Chinese
Default : No
Forced : No

Text #36
ID : 38
Format : UTF-8
Codec ID : S_TEXT/UTF8
Codec ID/Info : UTF-8 Plain Text
Duration : 1 h 41 min
Bit rate : 99 b/s
Count of elements : 2192
Stream size : 73.9 KiB (0%)
Title : Traditional
Language : Chinese
Default : No
Forced : No




Скачать Время для себя через торрент https://st-kp-yandex-net.translate.goog/images/film_iphone/iphone360_4653361.jpg Скачать, смотреть онлайн Время для себя бесплантно в хорошем качестве Описание: Сонни и Майя — счастливая пара с двумя детьми. Она работает в архитектурном агентстве, он следит за хозяйством и воспитывает сына ... 9.3 10 12
Торрент: Зарегистрирован [2022-08-30 13:52] · скачан: 317 раз
Статус: T временная
Размер: 3.14 GB
Как cкачать? Как скачать Время для себя через торрент | UTorrent

% Раздел Тема Автор DL S | L
Фильмы 2022 [DVDrip, WEB-DLRip, HDrip] (DUB, MVO) [ 1.46 GB ] Время для себя / Me Time | TVShows | DLRip bober100 Скачать
6 | 1
Фильмы с украинским озвучиванием [ 3.27 GB ] Время для себя / Час для себе / Me Time | DUB | 1080p killermax2013 Скачать
2 | 0

28-11-2019 20:33  


Отключить вcю реклaмy на сайте, в т.ч. и в плеере онлайн просмотра!

30-08-2022 16:30 Время для себя Скачать торрент  

Netflix - сразу мимо



30-08-2022 19:36 Время для себя Скачать торрент  

h1n1 писал(а):

Netflix - сразу мимо

Стандартная американская одноразовая легкая (и слегка туповатая) комедия.



31-08-2022 00:47 Время для себя Скачать торрент  

тупая,не смешная комедия с чисто пиндосовским юмором,который им только и понятен.жалко,что путевые актеры тратят себя на такое дерьмо.



31-08-2022 14:04 Время для себя Скачать торрент  

h1n1 писал(а):

Netflix - сразу мимо

тогда надо завязать с просмотром вообще,везде проходить мимо-ведь все фильмы выкупил нетфликс...



    Дорогой пользователь! Огромная просьба, поблагодарите релизера, оцените раздачу и оставьте свои комментарий, если Вы скачали Время для себя через торрент бесплатно!!
    Комментировать посты могут только пользователи прошедшие не сложную регистрацию
    Показать сообщения:    


    Время для себя через торрент
    Скачать бесплатно Время для себя
    Время для себя скачать торрент
    Время для себя смотреть онлайн
    Cкачать фильм Время для себя бесплатно
    Время для себя скачать торрент в хорошем качестве
    Время для себя смотреть онлайн бесплатно в хорошем качестве
    Вы не можете начинать темы
    Вы не можете отвечать на сообщения
    Вы не можете редактировать свои сообщения
    Вы не можете удалять свои сообщения
    Вы не можете голосовать в опросах
    Вы не можете прикреплять файлы к сообщениям
    Вы можете скачивать файлы
    Время для себя / Me Time [2022, Комедия, WEB-DL 1080p] DVO [Pazl Voice] смотреть онлайн, скачать торрент picoco.icu