Доктор Стрэндж

Лицензия

Добыча

Дубляж

Уэнсдэй

1 сезон

Тор

Дубляж

В эфире

Дубляж

Там, где раки поют

MVO

Властелин колец

1 сезон

Deluxe

pack

Рекомендуем

30

Пиратка

ВАЖНО

ВАЖНО

Ghostwire

Пиратка

jed

RePack

nioh2

RePack

RDR2

RePack

NEED FOR SPEED™ PAYBACK

RePack

скачать торрент

Кинопоиск HD

Острые козырьки 6 сезон

6 сезон

FAR CRY 6

RePack

скачать торрент

Лицензия

скачать торрент

MVO

1

1 сезон

скачать торрент

1 сезон

скачать торрент

Лицензия

  

Побег из Африки / Неломающийся меч / Escape Through Africa (Тед Бетц) [2022, Приключения, WEB-DL 1080p] Дубляж [iTunes]

Побег из Африки через торрент pb.wtf

Размер: 6.68 GB | Добавлен: 3 мес. 2 д. назад | Торрент скачан:78 раз
Смотреть онлайн | Скачать   

01-09-2022 12:01 Побег из Африки Скачать торрент  

Побег из Африки / Неломающийся меч
Escape Through Africa

Год выпуска: 2022
Страна: США
Выпущено: Lux Libertas Entertainment, 4th RockFoundation Post
Жанр: Приключения
Продолжительность: 01:29:14
Перевод: Дублированный | iTunes
Субтитры: отсутствуют

Режиссер: Тед Бетц

rating

В ролях: Эрик Робертс, Linn Bjornland, Джастин Гордон, Роберт Окуму, Леонард Келли-Янг, Michael Adegoke, Рон Боттитта, Чарльз Чиянгва, Douglas Dennard, Джэфф Грэйс

Описание: В 1914 году британская медсестра спасается от нападения на её аванпост в Африке. Преследуемая военным немецким отрядом, она вместе с местными воинами отправляется в невероятное путешествие, чтобы спасти соседний аванпост.

Качество: WEB-DL 1080p
Формат: MKV

Видео: MPEG-4 AVC, ~ 9940 Kb/s, 1916x1034, 23.976 fps
Аудио #01: 48 kHz, AC3, 5.1, 384 Kbps | Дублированный | iTunes | RUS |
Аудио #02: 48 kHz, AC3, 5.1, 384 Kbps | Оригинал | ENG |
скриншот  скриншот  скриншот  скриншот  

Complete name: Pobeg.iz.Afriki.2022.WEB-DL.1080p.ELEKTRI4KA.UNIONGANG.mkv
Format: Matroska
Format version: Version 4
File size: 6.68 GiB
Duration: 1 h 29 min
Overall bit rate: 10.7 Mb/s
Movie name: Pobeg.iz.Afrik.2022.WEB-DL.1080p.ELEKTRI4KA.UNIONGANG.
Encoded date: UTC 2022-09-01 10:20:43
Writing application: mkvmerge v8.3.0 ('Over the Horizon') 32bit
Writing library: libebml v1.3.1 + libmatroska v1.4.2

Video
ID: 1
Format: AVC
Format/Info: Advanced Video Codec
Format profile: [email protected]
Format settings: CABAC / 4 Ref Frames
Format settings, CABAC: Yes
Format settings, Reference frames: 4 frames
Codec ID: V_MPEG4/ISO/AVC
Duration: 1 h 29 min
Bit rate: 9 940 kb/s
Width: 1 916 pixels
Height: 1 034 pixels
Display aspect ratio: 1.85:1
Frame rate mode: Constant
Frame rate: 23.976 (24000/1001) FPS
Color space: YUV
Chroma subsampling: 4:2:0
Bit depth: 8 bits
Scan type: Progressive
Bits/(Pixel*Frame): 0.209
Stream size: 6.20 GiB (93%)
Default: Yes
Forced: No
Color range: Limited
Color primaries: BT.709
Transfer characteristics: BT.709
Matrix coefficients: BT.709

Audio #1
ID: 2
Format: AC-3
Format/Info: Audio Coding 3
Commercial name: Dolby Digital
Codec ID: A_AC3
Duration: 1 h 29 min
Bit rate mode: Constant
Bit rate: 384 kb/s
Channel(s): 6 channels
Channel layout: L R C LFE Ls Rs
Sampling rate: 48.0 kHz
Frame rate: 31.250 FPS (1536 SPF)
Compression mode: Lossy
Stream size: 245 MiB (4%)
Title: Дубляж (iTunes)
Language: Russian
Service kind: Complete Main
Default: Yes
Forced: Yes

Audio #2
ID: 3
Format: AC-3
Format/Info: Audio Coding 3
Commercial name: Dolby Digital
Codec ID: A_AC3
Duration: 1 h 29 min
Bit rate mode: Constant
Bit rate: 384 kb/s
Channel(s): 6 channels
Channel layout: L R C LFE Ls Rs
Sampling rate: 48.0 kHz
Frame rate: 31.250 FPS (1536 SPF)
Compression mode: Lossy
Stream size: 245 MiB (4%)
Title: Original
Language: English
Service kind: Complete Main
Default: No
Forced: No




Скачать Побег из Африки через торрент https://i120.fastpic.org/big/2022/0901/8c/3e7ffb03f2d19fe1fdef57cafc59b58c.jpg Скачать, смотреть онлайн Побег из Африки бесплантно в хорошем качестве Описание: В 1914 году британская медсестра спасается от нападения на её аванпост в Африке. Преследуемая военным немецким отрядом, она ... 8.2 10 6
Торрент: Зарегистрирован [2022-09-01 12:01] · скачан: 78 раз
Статус: √ проверено
Размер: 6.68 GB
Как cкачать? Как скачать Побег из Африки через торрент | UTorrent

% Раздел Тема Автор DL S | L
Фильмы 2022 [DVDrip, WEB-DLRip, HDrip] (DUB, MVO) [ 1.46 GB ] Побег из Африки / Неломающийся меч / Escape Through Africa | iTunes | DLRip bober100 Скачать
4 | 0

28-11-2019 20:33  


Отключить вcю реклaмy на сайте, в т.ч. и в плеере онлайн просмотра!

01-09-2022 12:46 Побег из Африки Скачать торрент  

ну Эрик то куда полез,сидел бы дома уже.



01-09-2022 20:00 Побег из Африки Скачать торрент  

SASHA66 писал(а):

ну Эрик то куда полез,сидел бы дома уже.

Ему Брюсик сказал: намана, пипл хавает ))



    Дорогой пользователь! Огромная просьба, поблагодарите релизера, оцените раздачу и оставьте свои комментарий, если Вы скачали Побег из Африки через торрент бесплатно!!
    Комментировать посты могут только пользователи прошедшие не сложную регистрацию
    Показать сообщения:    


    Побег из Африки через торрент
    Скачать бесплатно Побег из Африки
    Побег из Африки скачать торрент
    Побег из Африки смотреть онлайн
    Cкачать фильм Побег из Африки бесплатно
    Побег из Африки скачать торрент в хорошем качестве
    Побег из Африки смотреть онлайн бесплатно в хорошем качестве
    Вы не можете начинать темы
    Вы не можете отвечать на сообщения
    Вы не можете редактировать свои сообщения
    Вы не можете удалять свои сообщения
    Вы не можете голосовать в опросах
    Вы не можете прикреплять файлы к сообщениям
    Вы можете скачивать файлы
    Побег из Африки / Неломающийся меч / Escape Through Africa [2022, Приключения, WEB-DL 1080p] Дубляж [iTunes] смотреть онлайн, скачать торрент picoco.icu