Доктор Стрэндж

Лицензия

Добыча

Дубляж

Уэнсдэй

1 сезон

Тор

Дубляж

В эфире

Дубляж

Там, где раки поют

MVO

Властелин колец

1 сезон

Deluxe

pack

Рекомендуем

30

Пиратка

ВАЖНО

ВАЖНО

Ghostwire

Пиратка

jed

RePack

nioh2

RePack

RDR2

RePack

NEED FOR SPEED™ PAYBACK

RePack

скачать торрент

Кинопоиск HD

Острые козырьки 6 сезон

6 сезон

FAR CRY 6

RePack

скачать торрент

Лицензия

скачать торрент

MVO

1

1 сезон

скачать торрент

1 сезон

скачать торрент

Лицензия

  

Сами напросились / Против воли / Asking for It (Имон О’Рурк) [2021, Триллер, WEB-DL 1080p] Дубляж [iTunes]

Сами напросились через торрент pb.wtf

Размер: 5.36 GB | Добавлен: 3 мес. назад | Торрент скачан:24 раза
Смотреть онлайн | Скачать   

03-09-2022 07:32 Сами напросились Скачать торрент  

Сами напросились / Против воли
Asking for It

Год выпуска: 2021
Страна: США
Студия: A Safe Way Forward, Beer Money Worldwide, Carte Blanche
Жанр: Триллер
Продолжительность: 01:41:28
Перевод: Дублированный | iTunes
Субтитры: Русские (Forced, full), английские, французские

Режиссер: Имон О’Рурк

rating

В ролях: Кирси Клемонс, Ванесса Энн Хадженс, Александра Шипп, Эзра Миллер, Габури Сидибе, Рада Митчелл, Лесли Стрэттон, Люк Хемсворт, Кейси Котт, Кэйси Кэмп-Хоринек, Дэвид Патрик Келли, Лейна Блум, Деметриус Шипп мл.

Описание: Пережив сексуальное насилие после свидания со старым другом, Джои знакомится с Реджиной и Беатрис, которые приглашают ее присоединиться к отряду мстительниц. Женщины бросают вызов обществу, подчиненному мужской власти, и сражаются за справедливость — в своем понимании этого слова.

Качество: WEB-DL 1080p
Формат: MKV

Видео: MPEG-4 AVC, 1904x796, 6787 Kbit/s, 23.976 fps
Аудио #01: 48 kHz, AC3, 5.1, 384 Kbps | iTunes | RUS |
Аудио #02: 48 kHz, AC3, 5.1, 384 Kbps | Оригинал | ENG |
скриншот  скриншот  скриншот  скриншот  

General
Unique ID : 75858751880255028814451072141954975729 (0x3911DD3AD5C97E9F88C616125DC507F1)
Complete name : F:Asking.for.It.2022.WEB-DL.1080p.seleZen.mkv
Format : Matroska
Format version : Version 4
File size : 5.36 GiB
Duration : 1 h 41 min
Overall bit rate : 7 557 kb/s
Movie name : Asking for It 2022 from seleZen
Encoded date : UTC 2022-09-03 04:53:50
Writing application : mkvmerge v59.0.0 ('Shining Star') 64-bit
Writing library : libebml v1.4.2 + libmatroska v1.6.4

Video
ID : 1
Format : AVC
Format/Info : Advanced Video Codec
Format profile : [email protected]
Format settings : CABAC / 5 Ref Frames
Format settings, CABAC : Yes
Format settings, Reference : 5 frames
Codec ID : V_MPEG4/ISO/AVC
Duration : 1 h 41 min
Bit rate : 6 787 kb/s
Width : 1 904 pixels
Height : 796 pixels
Display aspect ratio : 2.40:1
Frame rate mode : Constant
Frame rate : 23.976 (24000/1001) FPS
Color space : YUV
Chroma subsampling : 4:2:0
Bit depth : 8 bits
Scan type : Progressive
Bits/(Pixel*Frame) : 0.187
Stream size : 4.81 GiB (90%)
Language : English
Default : Yes
Forced : No
Color range : Limited
Color primaries : BT.709
Transfer characteristics : BT.709
Matrix coefficients : BT.709

Audio #1
ID : 2
Format : AC-3
Format/Info : Audio Coding 3
Commercial name : Dolby Digital
Codec ID : A_AC3
Duration : 1 h 41 min
Bit rate mode : Constant
Bit rate : 384 kb/s
Channel(s) : 6 channels
Channel layout : L R C LFE Ls Rs
Sampling rate : 48.0 kHz
Frame rate : 31.250 FPS (1536 SPF)
Compression mode : Lossy
Stream size : 278 MiB (5%)
Title : iTunes
Language : Russian
Service kind : Complete Main
Default : Yes
Forced : Yes

Audio #2
ID : 3
Format : AC-3
Format/Info : Audio Coding 3
Commercial name : Dolby Digital
Codec ID : A_AC3
Duration : 1 h 41 min
Bit rate mode : Constant
Bit rate : 384 kb/s
Channel(s) : 6 channels
Channel layout : L R C LFE Ls Rs
Sampling rate : 48.0 kHz
Frame rate : 31.250 FPS (1536 SPF)
Compression mode : Lossy
Stream size : 279 MiB (5%)
Title : Original
Language : English
Service kind : Complete Main
Default : No
Forced : No

Text #1
ID : 4
Format : UTF-8
Codec ID : S_TEXT/UTF8
Codec ID/Info : UTF-8 Plain Text
Duration : 1 h 37 min
Bit rate : 0 b/s
Frame rate : 0.002 FPS
Count of elements : 10
Stream size : 501 Bytes (0%)
Title : Forced
Language : Russian
Default : Yes
Forced : Yes

Text #2
ID : 5
Format : UTF-8
Codec ID : S_TEXT/UTF8
Codec ID/Info : UTF-8 Plain Text
Duration : 1 h 40 min
Bit rate : 90 b/s
Frame rate : 0.203 FPS
Count of elements : 1229
Stream size : 67.0 KiB (0%)
Title : Full
Language : Russian
Default : No
Forced : No

Text #3
ID : 6
Format : UTF-8
Codec ID : S_TEXT/UTF8
Codec ID/Info : UTF-8 Plain Text
Duration : 1 h 39 min
Bit rate : 58 b/s
Frame rate : 0.214 FPS
Count of elements : 1277
Stream size : 42.7 KiB (0%)
Title : Full
Language : English
Default : No
Forced : No

Text #4
ID : 7
Format : UTF-8
Codec ID : S_TEXT/UTF8
Codec ID/Info : UTF-8 Plain Text
Duration : 1 h 40 min
Bit rate : 57 b/s
Frame rate : 0.207 FPS
Count of elements : 1251
Stream size : 42.1 KiB (0%)
Title : French Canadian
Language : French
Default : No
Forced : No




Скачать Сами напросились через торрент https://i120.fastpic.org/big/2022/0903/53/e728b08f36f129402421c8c267108753.jpg Скачать, смотреть онлайн Сами напросились бесплантно в хорошем качестве Описание: Пережив сексуальное насилие после свидания со старым другом, Джои знакомится с Реджиной и Беатрис, которые приглашают ее ... 8.2 10 5
Торрент: Зарегистрирован [2022-09-03 07:32] · скачан: 24 раз
Статус: √ проверено
Размер: 5.36 GB
Как cкачать? Как скачать Сами напросились через торрент | UTorrent

% Раздел Тема Автор DL S | L
Фильмы 2021 [DVDrip, WEB-DLRip, HDrip] (DUB, MVO) [ 1.89 GB ] Сами напросились / Против воли / Asking for It | iTunes | DLRip-AVC Lithuania Скачать
1 | 0
Фильмы 2021 [DVDrip, WEB-DLRip, HDrip] (DUB, MVO) [ 1.95 GB ] Сами напросились / Против воли / Asking for It | iTunes | DLRip-AVC bober100 Скачать
1 | 0

28-11-2019 20:33  


Отключить вcю реклaмy на сайте, в т.ч. и в плеере онлайн просмотра!

03-09-2022 16:29 Сами напросились Скачать торрент  

Ахахахахха, господи, они готовы накинуть говна феминистического прямо чистого, и вот мы видим рейтинг, а сняли бы как Тарантино снял "Доказательство смерти", то было бы по другому и феминизм не надо выпячивать.



    Дорогой пользователь! Огромная просьба, поблагодарите релизера, оцените раздачу и оставьте свои комментарий, если Вы скачали Сами напросились через торрент бесплатно!!
    Комментировать посты могут только пользователи прошедшие не сложную регистрацию
    Показать сообщения:    


    Сами напросились через торрент
    Скачать бесплатно Сами напросились
    Сами напросились скачать торрент
    Сами напросились смотреть онлайн
    Cкачать фильм Сами напросились бесплатно
    Сами напросились скачать торрент в хорошем качестве
    Сами напросились смотреть онлайн бесплатно в хорошем качестве
    Вы не можете начинать темы
    Вы не можете отвечать на сообщения
    Вы не можете редактировать свои сообщения
    Вы не можете удалять свои сообщения
    Вы не можете голосовать в опросах
    Вы не можете прикреплять файлы к сообщениям
    Вы можете скачивать файлы
    Сами напросились / Против воли / Asking for It [2021, Триллер, WEB-DL 1080p] Дубляж [iTunes] смотреть онлайн, скачать торрент picoco.icu