Доктор Стрэндж

Лицензия

Добыча

Дубляж

Уэнсдэй

1 сезон

Тор

Дубляж

В эфире

Дубляж

Там, где раки поют

MVO

Властелин колец

1 сезон

Deluxe

pack

Рекомендуем

30

Пиратка

ВАЖНО

ВАЖНО

Ghostwire

Пиратка

jed

RePack

nioh2

RePack

RDR2

RePack

NEED FOR SPEED™ PAYBACK

RePack

скачать торрент

Кинопоиск HD

Острые козырьки 6 сезон

6 сезон

FAR CRY 6

RePack

скачать торрент

Лицензия

скачать торрент

MVO

1

1 сезон

скачать торрент

1 сезон

скачать торрент

Лицензия

  

Самаритянин / Samaritan (Джулиус Эйвери) [2022, Фантастика, фэнтези, боевик, драма, WEB-DL 1080p] 2xMVO [Jaskier, NewComers]

Самаритянин через торрент pb.wtf

Раздают: 7 [ 229 KB/s ] Качают: 2 [ 0 KB/s ]
Размер: 6.61 GB | Добавлен: 3 мес. 6 д. назад | Торрент скачан:429 раз
Смотреть онлайн | Скачать   

26-08-2022 08:50 Самаритянин Скачать торрент  

Самаритянин
Samaritan

Год выпуска: 2022
Страна: США
Выпущено: Metro-Goldwyn-Mayer (MGM), Balboa Productions
Жанр: Фантастика, фэнтези, боевик, драма
Продолжительность: 01:42:15
Перевод:
Профессиональный (многоголосый) | Jaskier
Профессиональный (многоголосый) | NewComers
Субтитры: Русские (Forced, full), украинские (Full), английские

Режиссер: Джулиус Эйвери

rating

В ролях: Сильвестр Сталлоне, Джейвон Уолтон, Пилу Асбек, Даша Поланко, София Татум, Мойзес Ариас, Мартин Старр, Jared Odrick, Майкл Аарон Миллиган, Генри Дж. Сандерс

Описание: 20 лет спустя после эпической битвы, в которой супергерой Самаритянин уничтожил суперзлодея и пропал без вести. Через два десятилетия парнишка с окраины знакомится со стариком, живущим в доме напротив. Вскоре мальчик осознает, что пожилой мужчина - тот самый пропавший супергерой, а причина его исчезновения оказывается поистине шокирующей.

Качество: WEB-DL 1080p
Формат: MKV

Видео:MPEG-4 AVC, 1920x800, 7712 Kbit/s, 23.976 fps
Аудио #01: 48 kHz, AC3, 5.1, 448 Kbps | Профессиональный многоголосый | Jaskier | RUS |
Аудио #02: 48 kHz, AC3, 5.1, 448 Kbps | Профессиональный многоголосый | NewComers | RUS |
Аудио #03: 48 kHz, E-AC3, 5.1, 640 Kbps | Оригинал | ENG |
скриншот  скриншот  скриншот  скриншот  скриншот  скриншот  

General
Unique ID: 48180966034319617416405661110454155897 (0x243F5107AF211F2B799BE49EF4EF7A79)
Complete name: F:VideoSamaritan.2022.AMZN.WEB-DL.1080p.seleZen.mkv
Format: Matroska
Format version: Version 4
File size: 6.61 GiB
Duration: 1 h 42 min
Overall bit rate: 9 250 kb/s
Movie name: Samaritan 2022 from seleZen
Encoded date: UTC 2022-08-28 20:25:27
Writing application: mkvmerge v59.0.0 ('Shining Star') 64-bit
Writing library: libebml v1.4.2 + libmatroska v1.6.4

Video
ID: 1
Format: AVC
Format/Info: Advanced Video Codec
Format profile: [email protected]
Format settings: CABAC / 4 Ref Frames
Format settings, CABAC: Yes
Format settings, Reference: 4 frames
Codec ID: V_MPEG4/ISO/AVC
Duration: 1 h 42 min
Bit rate mode: Constant
Bit rate: 7 712 kb/s
Nominal bit rate: 10 000 kb/s
Width: 1 920 pixels
Height: 800 pixels
Display aspect ratio: 2.40:1
Frame rate mode: Constant
Frame rate: 23.976 (24000/1001) FPS
Color space: YUV
Chroma subsampling: 4:2:0
Bit depth: 8 bits
Scan type: Progressive
Bits/(Pixel*Frame): 0.209
Stream size: 5.51 GiB (83%)
Language: English
Default: Yes
Forced: No
Color range: Limited
Color primaries: BT.709
Transfer characteristics: BT.709
Matrix coefficients: BT.709

Audio #1
ID: 2
Format: AC-3
Format/Info: Audio Coding 3
Commercial name: Dolby Digital
Codec ID: A_AC3
Duration: 1 h 42 min
Bit rate mode: Constant
Bit rate: 448 kb/s
Channel(s): 6 channels
Channel layout: L R C LFE Ls Rs
Sampling rate: 48.0 kHz
Frame rate: 31.250 FPS (1536 SPF)
Compression mode: Lossy
Stream size: 328 MiB (5%)
Title: MVO [Jaskier]
Language: Russian
Service kind: Complete Main
Default: Yes
Forced: Yes

Audio #2
ID: 3
Format: AC-3
Format/Info: Audio Coding 3
Commercial name: Dolby Digital
Codec ID: A_AC3
Duration: 1 h 42 min
Bit rate mode: Constant
Bit rate: 448 kb/s
Channel(s): 6 channels
Channel layout: L R C LFE Ls Rs
Sampling rate: 48.0 kHz
Frame rate: 31.250 FPS (1536 SPF)
Compression mode: Lossy
Stream size: 328 MiB (5%)
Title: MVO [NewComers]
Language: Russian
Service kind: Complete Main
Default: No
Forced: No

Audio #3
ID: 4
Format: E-AC-3
Format/Info: Enhanced AC-3
Commercial name: Dolby Digital Plus
Codec ID: A_EAC3
Duration: 1 h 42 min
Bit rate mode: Constant
Bit rate: 640 kb/s
Channel(s): 6 channels
Channel layout: L R C LFE Ls Rs
Sampling rate: 48.0 kHz
Frame rate: 31.250 FPS (1536 SPF)
Compression mode: Lossy
Stream size: 468 MiB (7%)
Title: Original
Language: English
Service kind: Complete Main
Default: No
Forced: No

Text #1
ID: 5
Format: UTF-8
Codec ID: S_TEXT/UTF8
Codec ID/Info: UTF-8 Plain Text
Duration: 1 h 12 min
Bit rate: 1 b/s
Frame rate: 0.004 FPS
Count of elements: 19
Stream size: 1.01 KiB (0%)
Title: Forced
Language: Russian
Default: No
Forced: No

Text #2
ID: 6
Format: UTF-8
Codec ID: S_TEXT/UTF8
Codec ID/Info: UTF-8 Plain Text
Duration: 1 h 38 min
Bit rate: 67 b/s
Frame rate: 0.200 FPS
Count of elements: 1184
Stream size: 48.7 KiB (0%)
Title: Full
Language: Russian
Default: No
Forced: No

Text #3
ID: 7
Format: UTF-8
Codec ID: S_TEXT/UTF8
Codec ID/Info: UTF-8 Plain Text
Duration: 1 h 38 min
Bit rate: 66 b/s
Frame rate: 0.200 FPS
Count of elements: 1184
Stream size: 48.3 KiB (0%)
Title: Full
Language: Ukrainian
Default: No
Forced: No

Text #4
ID: 8
Format: UTF-8
Codec ID: S_TEXT/UTF8
Codec ID/Info: UTF-8 Plain Text
Duration: 1 h 33 min
Bit rate: 52 b/s
Frame rate: 0.252 FPS
Count of elements: 1423
Stream size: 36.4 KiB (0%)
Title: Full
Language: English
Default: No
Forced: No

Menu
00:00:00.000: Глава 01
00:12:30.000: Глава 02
00:25:00.000: Глава 03
00:37:30.000: Глава 04
00:50:00.000: Глава 05
01:02:30.000: Глава 06
01:15:00.000: Глава 07
01:27:30.000: Глава 08
01:40:00.000: Глава 09




Скачать Самаритянин через торрент https://i120.fastpic.org/big/2022/0829/f6/769e968007166eead4eb3c966a083ff6.jpg Скачать, смотреть онлайн Самаритянин бесплантно в хорошем качестве Описание: 20 лет спустя после эпической битвы, в которой супергерой Самаритянин уничтожил суперзлодея и пропал без вести. Через два ... 9.3 10 24
Торрент: Зарегистрирован [2022-08-29 02:19] · скачан: 429 раз
Статус: √ проверено
Размер: 6.61 GB
Как cкачать? Как скачать Самаритянин через торрент | UTorrent

% Раздел Тема Автор DL S | L
Фильмы 2022 [DVDrip, WEB-DLRip, HDrip] (DUB, MVO) [ 1.46 GB ] Самаритянин / Samaritan | Jaskier | DLRip bober100 Скачать
12 | 0
Фильмы (HD 720p, 1080p) (48-60 fps) [ 3.43 GB ] Самаритянин / Samaritan | NewComers | DLRip 720p, 60 FPS, NewComers slaventi-69 Скачать
12 | 1
Фильмы 2022 [DVDrip, WEB-DLRip, HDrip] (DUB, MVO) [ 2.08 GB ] Самаритянин / Samaritan | Jaskier | DLRip-AVC bober100 Скачать
2 | 0
Фильмы 2022 [DVDrip, WEB-DLRip, HDrip] (DUB, MVO) [ 2.14 GB ] Самаритянин / Samaritan | NewComers | DLRip-AVC Lithuania Скачать
9 | 0
Фильмы 2022 [DVDrip, WEB-DLRip, HDrip] (DUB, MVO) [ 2.08 GB ] Самаритянин / Samaritan | NewComers | DLRip-AVC bober100 Скачать
15 | 0



Последний раз редактировалось: bober100 (2022-08-29 02:23), всего редактировалось 5 раз(а)

28-11-2019 20:33  


Отключить вcю реклaмy на сайте, в т.ч. и в плеере онлайн просмотра!

26-08-2022 09:32 Самаритянин Скачать торрент  

Опа, как быстро. И еще и Вебрип. Ну Слай не Брюс, во всяком говне не снимался еще.



27-08-2022 02:51 Самаритянин Скачать торрент  

Сильвестр конечно молодец.надеюсь стрельнут у него еще хорошие роли,но данный фильм откровенно слабоват,простоват.да и больше какой-то детский вариант.






Последний раз редактировалось: SASHA66 (2022-08-29 11:16), всего редактировалось 2 раз(а)

27-08-2022 09:11 Самаритянин Скачать торрент  

Как там сейчас в Самаре, смотреть можно?



27-08-2022 09:21 Самаритянин Скачать торрент  

А мне нра импортозамещение)) Фильмы в качестве быстро на торрентах появляются



30-08-2022 08:34 Самаритянин Скачать торрент  

Keapc писал(а):

А мне нра импортозамещение)) Фильмы в качестве быстро на торрентах появляются

роскомпозору пофиг на патриотизм, продолжают блочить ресурсы как умалишенные маньяки



30-08-2022 08:37 Самаритянин Скачать торрент  

трешак если честно, еле досмотрели..
Оценка на 5 максимум



30-08-2022 14:10 Самаритянин Скачать торрент  

h1n1 писал(а):

трешак если честно, еле досмотрели..
Оценка на 5 максимум

согласен. такое себе. не хуже чем с Уилисом и Кейджем. но большего ожидал.



30-08-2022 17:37 Самаритянин Скачать торрент  

Ребят!Вы серьезно?!Какая может быть критика?фильм снят для истинных фанатов Слая.Мужику 70+ уже,половина не доживает,до такого возраста,а он еще в кино снимается.Не кто бы и не стал его брать в фильм где бюджет 250м, только респект и уважение Слаю.



01-09-2022 19:46 Самаритянин Скачать торрент  

Shmidt89 писал(а):

Ребят!Вы серьезно?!Какая может быть критика?фильм снят для истинных фанатов Слая.Мужику 70+ уже,половина не доживает,до такого возраста,а он еще в кино снимается.Не кто бы и не стал его брать в фильм где бюджет 250м, только респект и уважение Слаю.

Так можно сказать про любого старперного актера.
Да возраст, да заслуженный артист, но когда ты всю жазнь держал планку качества и уровня фильмов.. Нужно все таки выбирать сюжеты и сценарии.
Только из-за того что это Слай, возвышать фильм. Не согласен.



05-09-2022 12:17 Самаритянин Скачать торрент  

h1n1 писал(а):

Shmidt89 писал(а):

Ребят!Вы серьезно?!Какая может быть критика?фильм снят для истинных фанатов Слая.Мужику 70+ уже,половина не доживает,до такого возраста,а он еще в кино снимается.Не кто бы и не стал его брать в фильм где бюджет 250м, только респект и уважение Слаю.

Так можно сказать про любого старперного актера.
Да возраст, да заслуженный артист, но когда ты всю жазнь держал планку качества и уровня фильмов.. Нужно все таки выбирать сюжеты и сценарии.
Только из-за того что это Слай, возвышать фильм. Не согласен.

полностью согласен.



    Дорогой пользователь! Огромная просьба, поблагодарите релизера, оцените раздачу и оставьте свои комментарий, если Вы скачали Самаритянин через торрент бесплатно!!
    Комментировать посты могут только пользователи прошедшие не сложную регистрацию
    Показать сообщения:    


    Самаритянин через торрент
    Скачать бесплатно Самаритянин
    Самаритянин скачать торрент
    Самаритянин смотреть онлайн
    Cкачать фильм Самаритянин бесплатно
    Самаритянин скачать торрент в хорошем качестве
    Самаритянин смотреть онлайн бесплатно в хорошем качестве
    Вы не можете начинать темы
    Вы не можете отвечать на сообщения
    Вы не можете редактировать свои сообщения
    Вы не можете удалять свои сообщения
    Вы не можете голосовать в опросах
    Вы не можете прикреплять файлы к сообщениям
    Вы можете скачивать файлы
    Самаритянин / Samaritan [2022, Фантастика, фэнтези, боевик, драма, WEB-DL 1080p] 2xMVO [Jaskier, NewComers] смотреть онлайн, скачать торрент picoco.icu