Доктор Стрэндж

Лицензия

Добыча

Дубляж

Уэнсдэй

1 сезон

Тор

Дубляж

В эфире

Дубляж

Там, где раки поют

MVO

Властелин колец

1 сезон

Deluxe

pack

Рекомендуем

30

Пиратка

ВАЖНО

ВАЖНО

Ghostwire

Пиратка

jed

RePack

nioh2

RePack

RDR2

RePack

NEED FOR SPEED™ PAYBACK

RePack

скачать торрент

Кинопоиск HD

Острые козырьки 6 сезон

6 сезон

FAR CRY 6

RePack

скачать торрент

Лицензия

скачать торрент

MVO

1

1 сезон

скачать торрент

1 сезон

скачать торрент

Лицензия

  

13 жизней / Thirteen Lives (Рон Ховард) [2022, Триллер, драма, биография, WEB-DL 1080p] MVO [Jaskier]

13 жизней через торрент pb.wtf

Раздают: 10 [ 107 KB/s ]
Размер: 9.42 GB | Добавлен: 3 мес. 28 д. назад | Торрент скачан:559 раз
Смотреть онлайн | Скачать   

08-08-2022 03:45 13 жизней Скачать торрент  

13 жизней
Thirteen Lives

Год выпуска: 2022
Страна: Великобритания
Студия: Bron Studios, Imagine Entertainment, Magnolia Mae Inc., Metro-Goldwyn-Mayer (MGM), Storyteller Productions, Xm2 Pursuit
Жанр: Триллер, драма, биография
Продолжительность: 02:29:39
Перевод: Профессиональный (многоголосый) | Jaskier
Субтитры: Русские (Forced, full), английские

Режиссер: Рон Ховард

rating

В ролях: Том Бейтман, Колин Фаррелл, Вигго Мортенсен, Джоэл Эдгертон, Льюис Фитцжеральд, Витая Пансрингарм, Пол Глисон (II), Артин Джон, Сахаджак Бунтанакит, Терадон Супапунпиньо, Натвара Хонсуван, Кевин Спинк

Описание: Летом 2018 года подростки из футбольной команды вместе со своим тренером оказались в ловушке пещерного комплекса в Таиланде, выход из которого был затоплен водой. Пока они ищут спасения от подступающей воды, во внешнем мире собирается отряд для их спасения. Основано на реальной истории.

Качество: WEB-DL 1080p
Формат: MKV

Видео: MPEG-4 AVC, 1920x800, 7919 Kbit/s, 23.976 fps
Аудио #01: 48 kHz, AC3, 5.1, 448 Kbps | Профессиональный многоголосый | Jaskier | RUS |
Аудио #02: 48 kHz, E-AC3, 5.1, 640 Kbps | Оригинал | ENG |
скриншот  скриншот  скриншот  скриншот  скриншот  

General
Unique ID : 78809718087976039744443023983401974208 (0x3B4A3318D147720F7941B25CC2A739C0)
Complete name : D:Thirteen.Lives.2022.AMZN.WEB-DL.1080p.seleZen.mkv
Format : Matroska
Format version : Version 4
File size : 9.42 GiB
Duration : 2 h 29 min
Overall bit rate : 9 010 kb/s
Movie name : Thirteen Lives 2022 from seleZen
Encoded date : UTC 2022-08-07 22:36:50
Writing application : mkvmerge v59.0.0 ('Shining Star') 64-bit
Writing library : libebml v1.4.2 + libmatroska v1.6.4

Video
ID : 1
Format : AVC
Format/Info : Advanced Video Codec
Format profile : [email protected]
Format settings : CABAC / 4 Ref Frames
Format settings, CABAC : Yes
Format settings, Reference : 4 frames
Codec ID : V_MPEG4/ISO/AVC
Duration : 2 h 29 min
Bit rate mode : Constant
Bit rate : 7 919 kb/s
Nominal bit rate : 10 000 kb/s
Width : 1 920 pixels
Height : 800 pixels
Display aspect ratio : 2.40:1
Frame rate mode : Constant
Frame rate : 23.976 (24000/1001) FPS
Color space : YUV
Chroma subsampling : 4:2:0
Bit depth : 8 bits
Scan type : Progressive
Bits/(Pixel*Frame) : 0.215
Stream size : 8.28 GiB (88%)
Language : English
Default : Yes
Forced : No
Color range : Limited
Color primaries : BT.709
Transfer characteristics : BT.709
Matrix coefficients : BT.709

Audio #1
ID : 2
Format : AC-3
Format/Info : Audio Coding 3
Commercial name : Dolby Digital
Codec ID : A_AC3
Duration : 2 h 29 min
Bit rate mode : Constant
Bit rate : 448 kb/s
Channel(s) : 6 channels
Channel layout : L R C LFE Ls Rs
Sampling rate : 48.0 kHz
Frame rate : 31.250 FPS (1536 SPF)
Compression mode : Lossy
Stream size : 480 MiB (5%)
Title : MVO [Jaskier]
Language : Russian
Service kind : Complete Main
Default : Yes
Forced : Yes

Audio #2
ID : 3
Format : E-AC-3
Format/Info : Enhanced AC-3
Commercial name : Dolby Digital Plus
Codec ID : A_EAC3
Duration : 2 h 29 min
Bit rate mode : Constant
Bit rate : 640 kb/s
Channel(s) : 6 channels
Channel layout : L R C LFE Ls Rs
Sampling rate : 48.0 kHz
Frame rate : 31.250 FPS (1536 SPF)
Compression mode : Lossy
Stream size : 685 MiB (7%)
Title : Original
Language : English
Service kind : Complete Main
Default : No
Forced : No

Text #1
ID : 4
Format : UTF-8
Codec ID : S_TEXT/UTF8
Codec ID/Info : UTF-8 Plain Text
Duration : 2 h 18 min
Bit rate : 4 b/s
Frame rate : 0.007 FPS
Count of elements : 55
Stream size : 4.78 KiB (0%)
Title : Forced
Language : Russian
Default : Yes
Forced : Yes

Text #2
ID : 5
Format : UTF-8
Codec ID : S_TEXT/UTF8
Codec ID/Info : UTF-8 Plain Text
Duration : 2 h 25 min
Bit rate : 61 b/s
Frame rate : 0.157 FPS
Count of elements : 1378
Stream size : 65.4 KiB (0%)
Title : Full
Language : Russian
Default : No
Forced : No

Text #3
ID : 6
Format : UTF-8
Codec ID : S_TEXT/UTF8
Codec ID/Info : UTF-8 Plain Text
Duration : 2 h 25 min
Bit rate : 61 b/s
Frame rate : 0.157 FPS
Count of elements : 1377
Stream size : 65.2 KiB (0%)
Title : Full
Language : Ukrainian
Default : No
Forced : No

Text #4
ID : 7
Format : UTF-8
Codec ID : S_TEXT/UTF8
Codec ID/Info : UTF-8 Plain Text
Duration : 2 h 16 min
Bit rate : 11 b/s
Frame rate : 0.048 FPS
Count of elements : 396
Stream size : 11.9 KiB (0%)
Title : Forced
Language : English
Default : No
Forced : No

Text #5
ID : 8
Format : UTF-8
Codec ID : S_TEXT/UTF8
Codec ID/Info : UTF-8 Plain Text
Duration : 2 h 23 min
Bit rate : 52 b/s
Frame rate : 0.250 FPS
Count of elements : 2156
Stream size : 55.0 KiB (0%)
Language : English
Default : No
Forced : No

Menu
00:00:00.000 : Amazon Original
00:00:06.000 : Studio Logo
00:00:48.000 : Title Sequence
00:00:52.000 : Scene 4
00:03:11.000 : Scene 5
00:06:38.000 : Scene 6
00:07:48.000 : Scene 7
00:09:19.000 : Scene 8
00:11:04.000 : Scene 9
00:11:54.000 : Scene 10
00:12:10.000 : Scene 11
00:13:43.000 : Scene 12
00:15:12.000 : Scene 13
00:16:38.000 : Scene 14
00:18:30.000 : Scene 15
00:20:37.000 : Scene 16
00:26:29.000 : Scene 17
00:28:30.000 : Scene 18
00:28:56.000 : Scene 19
00:29:57.000 : Scene 20
00:30:44.000 : Scene 21
00:32:30.000 : Scene 22
00:34:12.000 : Scene 23
00:35:35.000 : Scene 24
00:37:56.000 : Scene 25
00:39:49.000 : Scene 26
00:40:38.000 : Scene 27
00:41:01.000 : Scene 28
00:44:22.000 : Scene 29
00:48:49.000 : Scene 30
00:49:46.000 : Scene 31
00:51:37.000 : Scene 32
00:52:22.000 : Scene 33
00:54:48.000 : Scene 34
00:55:56.000 : Scene 35
00:58:29.000 : Scene 36
01:01:41.000 : Scene 37
01:03:55.000 : Scene 38
01:05:47.000 : Scene 39
01:08:34.000 : Scene 40
01:11:17.000 : Scene 41
01:12:13.000 : Scene 42
01:16:36.000 : Scene 43
01:17:49.000 : Scene 44
01:19:57.000 : Scene 45
01:21:47.000 : Scene 46
01:23:11.000 : Scene 47
01:25:00.000 : Scene 48
01:25:41.000 : Scene 49
01:26:10.000 : Scene 50
01:30:35.000 : Scene 51
01:35:23.000 : Scene 52
01:40:10.000 : Scene 53
01:43:09.000 : Scene 54
01:46:45.000 : Scene 55
01:49:48.000 : Scene 56
01:50:00.000 : Scene 57
01:50:52.000 : Scene 58
01:51:19.000 : Scene 59
01:52:02.000 : Scene 60
01:52:34.000 : Scene 61
01:53:47.000 : Scene 62
01:55:41.000 : Scene 63
01:57:40.000 : Scene 64
02:02:27.000 : Scene 65
02:02:42.000 : Scene 66
02:08:47.000 : Scene 67
02:13:32.000 : Scene 68
02:16:37.000 : Scene 69
02:16:53.000 : Scene 70
02:17:05.000 : Scene 71
02:17:36.000 : Scene 72
02:17:59.000 : Acknowledgement
02:18:01.000 : Acknowledgement
02:18:11.000 : Acknowledgement
02:19:00.000 : End Credits




Скачать 13 жизней через торрент https://i120.fastpic.org/big/2022/0807/e1/9fff57321a04331ee8138c96464c06e1.jpg Скачать, смотреть онлайн 13 жизней бесплантно в хорошем качестве Описание: Летом 2018 года подростки из футбольной команды вместе со своим тренером оказались в ловушке пещерного комплекса в Таиланде, ... 7.4 10 9
Торрент: Зарегистрирован [2022-08-08 03:45] · скачан: 559 раз
Статус: √ проверено
Размер: 9.42 GB
Как cкачать? Как скачать 13 жизней через торрент | UTorrent

% Раздел Тема Автор DL S | L
Фильмы 2022 [DVDrip, WEB-DLRip, HDrip] (DUB, MVO) [ 1.46 GB ] 13 жизней / Thirteen Lives | Jaskier | DLRip bober100 Скачать
10 | 0
Фильмы 2022 [DVDrip, WEB-DLRip, HDrip] (DUB, MVO) [ 2.18 GB ] 13 жизней / Thirteen Lives | Jaskier | DLRip bober100 Скачать
8 | 0

28-11-2019 20:33  


Отключить вcю реклaмy на сайте, в т.ч. и в плеере онлайн просмотра!

09-08-2022 00:50 13 жизней Скачать торрент  

арагорн уже не тот но фильм занятный



09-08-2022 01:51 13 жизней Скачать торрент  

интересно смотрится



05-09-2022 17:59 13 жизней Скачать торрент  

Сильный фильм!
начало какое-то скомканное и дешевое, хотел уже выключать, но перетерпел. И оказалось реально классный фильм, один из лучших драматических фильмов в этом году.



    Дорогой пользователь! Огромная просьба, поблагодарите релизера, оцените раздачу и оставьте свои комментарий, если Вы скачали 13 жизней через торрент бесплатно!!
    Комментировать посты могут только пользователи прошедшие не сложную регистрацию
    Показать сообщения:    


    13 жизней через торрент
    Скачать бесплатно 13 жизней
    13 жизней скачать торрент
    13 жизней смотреть онлайн
    Cкачать фильм 13 жизней бесплатно
    13 жизней скачать торрент в хорошем качестве
    13 жизней смотреть онлайн бесплатно в хорошем качестве
    Вы не можете начинать темы
    Вы не можете отвечать на сообщения
    Вы не можете редактировать свои сообщения
    Вы не можете удалять свои сообщения
    Вы не можете голосовать в опросах
    Вы не можете прикреплять файлы к сообщениям
    Вы можете скачивать файлы
    13 жизней / Thirteen Lives [2022, Триллер, драма, биография, WEB-DL 1080p] MVO [Jaskier] смотреть онлайн, скачать торрент picoco.icu