Доктор Стрэндж

Лицензия

Добыча

Дубляж

Уэнсдэй

1 сезон

Тор

Дубляж

В эфире

Дубляж

Там, где раки поют

MVO

Властелин колец

1 сезон

Deluxe

pack

Рекомендуем

30

Пиратка

ВАЖНО

ВАЖНО

Ghostwire

Пиратка

jed

RePack

nioh2

RePack

RDR2

RePack

NEED FOR SPEED™ PAYBACK

RePack

скачать торрент

Кинопоиск HD

Острые козырьки 6 сезон

6 сезон

FAR CRY 6

RePack

скачать торрент

Лицензия

скачать торрент

MVO

1

1 сезон

скачать торрент

1 сезон

скачать торрент

Лицензия

  

Молох / Moloch (Нико ван ден Бринк) [2022, Ужасы, BDRip 1080p] 3xMVO [OKKO, Jaskier, TVShows]

Молох через торрент pb.wtf

Раздают: 3 [ 0 KB/s ]
Размер: 7.88 GB | Добавлен: 1 мес. 18 д. назад | Торрент скачан:113 раз
Смотреть онлайн | Скачать   

24-07-2022 18:09 Молох Скачать торрент  

Молох
Moloch

Год выпуска: 2022
Страна: Нидерланды
Жанр: Ужасы
Продолжительность: 01:38:49
Перевод:
#1: Профессиональный (многоголосый) | OKKO
#2: Профессиональный (многоголосый) | Jaskier
#3: Профессиональный (многоголосый) | TVShows
Субтитры: Английские + (Hardsub на иностранную речь)

Режиссер: Нико ван ден Бринк

rating

В ролях: Аннеке Блок, Йохан Фретц, Фред Гуссенс, Маркиза Хамер, Салли Хармсен, Виллемейн Крессенхоф, Фи Нгуэн, Эдон Ризванолли, Альберт Секур, Брент ван Бардвейк

Описание: При раскопках найдено тело древней ведьмы Молох, которой по легенде приносили в жертву детей. После этой находки кошмары и странные видения начинают преследовать местных. Все указывает на то, что дух кровожадной ведьмы управляет людьми и предметами для совершения древнего обряда.

Качество: BDRip 1080p
Формат: MKV

Видео: MPEG-4 AVC, 1920x804, 10.0 Mbit/s, 23.976 fps
Аудио #01: 48 kHz, AC3, 5.1, 384 Kbps | Профессиональный многоголосый | OKKO | RUS |
Аудио #02: 48 kHz, AC3, 2.0, 224 Kbps | Профессиональный многоголосый | Jaskier | RUS |
Аудио #03: 48 kHz, AC3, 2.0, 192 Kbps | Профессиональный многоголосый | TVShows | RUS |
Аудио #04: 48 kHz, AC3, 5.1, 640 Kbps | Оригинал | DUT | Голландский
скриншот  скриншот  скриншот  скриншот  скриншот  скриншот  

General
Unique ID: 57983360546552278470970673707246797362 (0x2B9F30649DBC2BD7B05F9AF71499C232)
Complete name: D:\Videos\Moloch.2022.BDRip.1080p.seleZen.mkv
Format: Matroska
Format version: Version 4
File size: 7.88 GiB
Duration: 1 h 38 min
Overall bit rate: 11.4 Mb/s
Movie name: Moloch 2022 from seleZen
Encoded date: UTC 2022-10-16 21:43:12
Writing application: mkvmerge v59.0.0 ('Shining Star') 64-bit
Writing library: libebml v1.4.2 + libmatroska v1.6.4

Video
ID: 1
Format: AVC
Format/Info: Advanced Video Codec
Format profile: [email protected]
Format settings: CABAC / 5 Ref Frames
Format settings, CABAC: Yes
Format settings, Reference: 5 frames
Codec ID: V_MPEG4/ISO/AVC
Duration: 1 h 38 min
Bit rate: 10 000 kb/s
Width: 1 920 pixels
Height: 804 pixels
Display aspect ratio: 2.40:1
Frame rate mode: Constant
Frame rate: 23.976 (24000/1001) FPS
Color space: YUV
Chroma subsampling: 4:2:0
Bit depth: 8 bits
Scan type: Progressive
Bits/(Pixel*Frame): 0.270
Stream size: 6.89 GiB (87%)
Writing library: x264 core 164 r3085+55M seleZen t_mod_New [(8 & 10)[email protected] X86_64]
Encoding settings: cabac=1 / ref=5 / deblock=1:-2:-2 / analyse=0x3:0x133 / me=umh / subme=10 / psy=1 / fade_compensate=0.00 / psy_rd=1.03:0.02 / mixed_ref=1 / me_range=32 / chroma_me=1 / trellis=2 / 8x8dct=1 / cqm=0 / deadzone=21, 11 / fast_pskip=0 / chroma_qp_offset=-3 / threads=18 / lookahead_threads=3 / sliced_threads=0 / nr=0 / decimate=0 / interlaced=0 / bluray_compat=0 / constrained_intra=0 / fgo=0 / bframes=9 / b_pyramid=2 / b_adapt=2 / b_bias=0 / direct=3 / weightb=1 / open_gop=0 / weightp=2 / keyint=250 / keyint_min=23 / scenecut=40 / intra_refresh=0 / rc_lookahead=60 / rc=2pass / mbtree=0 / bitrate=10000 / ratetol=1.0 / qcomp=0.60 / qpmin=0:0:0 / qpmax=51:51:51 / qpstep=4 / cplxblur=20.0 / qblur=0.5 / vbv_maxrate=50000 / vbv_bufsize=62500 / nal_hrd=none / filler=0 / ip_ratio=1.40 / pb_ratio=1.30 / aq=3:0.80 / aq-sensitivity=10.00 / aq-factor=1.00:1.00:1.00 / aq2=0 / aq3=0
Language: English
Default: Yes
Forced: No

Audio #1
ID: 2
Format: AC-3
Format/Info: Audio Coding 3
Commercial name: Dolby Digital
Codec ID: A_AC3
Duration: 1 h 38 min
Bit rate mode: Constant
Bit rate: 384 kb/s
Channel(s): 6 channels
Channel layout: L R C LFE Ls Rs
Sampling rate: 48.0 kHz
Frame rate: 31.250 FPS (1536 SPF)
Compression mode: Lossy
Stream size: 271 MiB (3%)
Title: MVO [OKKO]
Language: Russian
Service kind: Complete Main
Default: Yes
Forced: Yes

Audio #2
ID: 3
Format: AC-3
Format/Info: Audio Coding 3
Commercial name: Dolby Digital
Codec ID: A_AC3
Duration: 1 h 38 min
Bit rate mode: Constant
Bit rate: 224 kb/s
Channel(s): 2 channels
Channel layout: L R
Sampling rate: 48.0 kHz
Frame rate: 31.250 FPS (1536 SPF)
Compression mode: Lossy
Stream size: 158 MiB (2%)
Title: MVO [jaskier]
Language: Russian
Service kind: Complete Main
Default: No
Forced: No

Audio #3
ID: 4
Format: AC-3
Format/Info: Audio Coding 3
Commercial name: Dolby Digital
Codec ID: A_AC3
Duration: 1 h 38 min
Bit rate mode: Constant
Bit rate: 192 kb/s
Channel(s): 2 channels
Channel layout: L R
Sampling rate: 48.0 kHz
Frame rate: 31.250 FPS (1536 SPF)
Compression mode: Lossy
Stream size: 136 MiB (2%)
Title: MVO [TVShows]
Language: Russian
Service kind: Complete Main
Default: No
Forced: No

Audio #4
ID: 5
Format: AC-3
Format/Info: Audio Coding 3
Commercial name: Dolby Digital
Codec ID: A_AC3
Duration: 1 h 38 min
Bit rate mode: Constant
Bit rate: 640 kb/s
Channel(s): 6 channels
Channel layout: L R C LFE Ls Rs
Sampling rate: 48.0 kHz
Frame rate: 31.250 FPS (1536 SPF)
Compression mode: Lossy
Stream size: 452 MiB (6%)
Title: Original
Language: English
Service kind: Complete Main
Default: No
Forced: No

Text
ID: 6
Format: UTF-8
Codec ID: S_TEXT/UTF8
Codec ID/Info: UTF-8 Plain Text
Duration: 1 h 38 min
Bit rate: 27 b/s
Frame rate: 0.151 FPS
Count of elements: 893
Stream size: 19.5 KiB (0%)
Language: English
Default: No
Forced: No

Menu
00:00:00.000: Chapter 01
00:06:55.331: Chapter 02
00:15:00.649: Chapter 03
00:26:19.786: Chapter 04
00:34:24.729: Chapter 05
00:41:28.319: Chapter 06
00:50:41.872: Chapter 07
00:59:20.765: Chapter 08
01:06:03.334: Chapter 09
01:15:26.063: Chapter 10
01:23:00.350: Chapter 11
01:32:12.193: Chapter 12




Скачать Молох через торрент https://i120.fastpic.org/big/2022/1016/15/aca2f1a718c90f1264737dc7d7c2dd15.jpg Скачать, смотреть онлайн Молох бесплантно в хорошем качестве Описание: При раскопках найдено тело древней ведьмы Молох, которой по легенде приносили в жертву детей. После этой находки кошмары и ... 8.1 10 10
Торрент: Зарегистрирован [2022-10-17 04:24] · скачан: 113 раз
Статус: √ проверено
Размер: 7.88 GB
Как cкачать? Как скачать Молох через торрент | UTorrent

% Раздел Тема Автор DL S | L
Фильмы 2022 [DVDrip, WEB-DLRip, HDrip] (DUB, MVO) [ 1.46 GB ] Молох / Moloch | OKKO | BDRip bober100 Скачать
5 | 0
Фильмы 2022 [DVDrip, WEB-DLRip, HDrip] (DUB, MVO) [ 1.95 GB ] Молох / Moloch | Jaskier | DLRip-AVC Lithuania Скачать
1 | 0
Фильмы 2022 [DVDrip, WEB-DLRip, HDrip] (DUB, MVO) [ 2.18 GB ] Молох / Moloch | Jaskier | DLRip-AVC bober100 Скачать
1 | 0



Последний раз редактировалось: bober100 (2022-10-17 04:29), всего редактировалось 2 раз(а)

28-11-2019 20:33  


Отключить вcю реклaмy на сайте, в т.ч. и в плеере онлайн просмотра!

20-08-2022 22:13 Молох Скачать торрент  

Муданудная ХУ-Е-ТА.



06-09-2022 19:18 Молох Скачать торрент  

Крайне унылый фильм... не советую



    Дорогой пользователь! Огромная просьба, поблагодарите релизера, оцените раздачу и оставьте свои комментарий, если Вы скачали Молох через торрент бесплатно!!
    Комментировать посты могут только пользователи прошедшие не сложную регистрацию
    Показать сообщения:    


    Молох через торрент
    Скачать бесплатно Молох
    Молох скачать торрент
    Молох смотреть онлайн
    Cкачать фильм Молох бесплатно
    Молох скачать торрент в хорошем качестве
    Молох смотреть онлайн бесплатно в хорошем качестве
    Вы не можете начинать темы
    Вы не можете отвечать на сообщения
    Вы не можете редактировать свои сообщения
    Вы не можете удалять свои сообщения
    Вы не можете голосовать в опросах
    Вы не можете прикреплять файлы к сообщениям
    Вы можете скачивать файлы
    Молох / Moloch [2022, Ужасы, BDRip 1080p] 3xMVO [OKKO, Jaskier, TVShows] смотреть онлайн, скачать торрент picoco.icu